generated from DragonRatTiger/Custom-Charts
357 lines
3.2 KiB
Plaintext
357 lines
3.2 KiB
Plaintext
TITLE:Copycat
|
|
TITLEJA:Copycat
|
|
SUBTITLE:--Circus-P feat. GUMI
|
|
SUBTITLEJA:Circus-P feat. GUMI
|
|
BPM:137.013
|
|
WAVE:Copycat.ogg
|
|
PREIMAGE:Copycat.png
|
|
OFFSET:-0.239
|
|
DEMOSTART:65.056
|
|
MAKER:Colin
|
|
|
|
COURSE:Oni
|
|
LEVEL:8
|
|
BALLOON:6,6
|
|
NOTESDESIGNER3:Colin
|
|
|
|
#START
|
|
1000200020010020,
|
|
1000200020010020,
|
|
1000200020010020,
|
|
1000200020010020,
|
|
1020202220101020,
|
|
1000102010222020,
|
|
1000101120102011,
|
|
1010201020112022,
|
|
1000201020222022,
|
|
1022201020201022,
|
|
1020101120102012,
|
|
1022102010221020,
|
|
1000202120102012,
|
|
1020101120102022,
|
|
1000202220102022,
|
|
1010201020112022,
|
|
1000201120102022,
|
|
1022201020201022,
|
|
1011102010221020,
|
|
1022201020202022,
|
|
1002,
|
|
10020020,
|
|
1,
|
|
12,
|
|
2001,
|
|
20020020,
|
|
1012,
|
|
2100,
|
|
30202012,
|
|
1220,
|
|
1221,
|
|
20200200,
|
|
1222,
|
|
12101000,
|
|
1222,
|
|
10102002,
|
|
,
|
|
#GOGOSTART
|
|
3000101120102020,
|
|
1011201020102022,
|
|
1010201120102020,
|
|
1022201030203020,
|
|
3000201120102012,
|
|
1020100020102012,
|
|
1010201120102011,
|
|
10102011201020
|
|
#GOGOEND
|
|
20,
|
|
#GOGOSTART
|
|
3000101120102020,
|
|
1011201020102022,
|
|
1010201120102020,
|
|
10222010302030
|
|
#GOGOEND
|
|
20,
|
|
#GOGOSTART
|
|
3000201120102012,
|
|
1020100020102012,
|
|
1010201120102011,
|
|
#GOGOEND
|
|
1000201020221020,
|
|
#GOGOSTART
|
|
3000101020121020,
|
|
1010101120122020,
|
|
1020201120102012,
|
|
1010203022203020,
|
|
3000201120102011,
|
|
1010200010102012,
|
|
1010201120102000,
|
|
30002030222030
|
|
#GOGOEND
|
|
20,
|
|
#GOGOSTART
|
|
30127080,
|
|
1221202050008020,
|
|
30127080,
|
|
2211222210102220,
|
|
#GOGOEND
|
|
3000200020010020,
|
|
1000200020010020,
|
|
1000200020010020,
|
|
1000200020010020,
|
|
#END
|
|
|
|
COURSE:Hard
|
|
LEVEL:4
|
|
NOTESDESIGNER2:Colin
|
|
|
|
#START
|
|
0000200020020200,
|
|
0000200020020020,
|
|
0000200020020020,
|
|
0000200020020020,
|
|
0211,
|
|
0122,
|
|
0122,
|
|
1212,
|
|
0122,
|
|
00102122,
|
|
00102101,
|
|
2212,
|
|
00201102,
|
|
01202000,
|
|
10201202,
|
|
0121,
|
|
20102201,
|
|
0220,
|
|
1212,
|
|
10201120,
|
|
1002,
|
|
20010020,
|
|
2,
|
|
1022,
|
|
1002,
|
|
10010020,
|
|
1022,
|
|
1005000000008000,
|
|
1222,
|
|
1210,
|
|
1222,
|
|
10200200,
|
|
0212,
|
|
1210,
|
|
1222,
|
|
10201001,
|
|
,
|
|
#GOGOSTART
|
|
30102012,
|
|
12102011,
|
|
11201020,
|
|
10210120,
|
|
10201012,
|
|
12102022,
|
|
12101020,
|
|
20120020,
|
|
3000100010001011,
|
|
1010100010002022,
|
|
22201020,
|
|
20120020,
|
|
3000200010001011,
|
|
1010200010202022,
|
|
21201020,
|
|
20120020,
|
|
30112012,
|
|
12121020,
|
|
10112012,
|
|
10210110,
|
|
30201021,
|
|
21201022,
|
|
12102011,
|
|
20120010,
|
|
10201120,
|
|
1001001020001020,
|
|
1001001020001020,
|
|
1001001010002020,
|
|
#GOGOEND
|
|
32,
|
|
02,
|
|
02,
|
|
02,
|
|
#END
|
|
|
|
COURSE:Normal
|
|
LEVEL:4
|
|
NOTESDESIGNER1:Colin
|
|
|
|
#START
|
|
2,
|
|
2,
|
|
22,
|
|
2,
|
|
0111,
|
|
00111010,
|
|
0111,
|
|
1110,
|
|
0222,
|
|
00202022,
|
|
00202202,
|
|
22,
|
|
00101101,
|
|
0110,
|
|
1,
|
|
1011,
|
|
10101101,
|
|
0110,
|
|
11,
|
|
1,
|
|
2002,
|
|
20020022,
|
|
2,
|
|
2022,
|
|
2002,
|
|
20220020,
|
|
2022,
|
|
5,
|
|
8011,
|
|
10111000,
|
|
1110,
|
|
10100100,
|
|
00101110,
|
|
11,
|
|
1,
|
|
10001001,
|
|
,
|
|
#GOGOSTART
|
|
30001011,
|
|
1110,
|
|
10001011,
|
|
11,
|
|
20002022,
|
|
2220,
|
|
22,
|
|
2000200
|
|
#GOGOEND
|
|
0,
|
|
#GOGOSTART
|
|
30001011,
|
|
1110,
|
|
10001011,
|
|
1000100
|
|
#GOGOEND
|
|
0,
|
|
#GOGOSTART
|
|
20002022,
|
|
2220,
|
|
2022,
|
|
#GOGOEND
|
|
2,
|
|
#GOGOSTART
|
|
10011011,
|
|
1110,
|
|
10101011,
|
|
11,
|
|
20022022,
|
|
2220,
|
|
2022,
|
|
2000200
|
|
#GOGOEND
|
|
0,
|
|
#GOGOSTART
|
|
10011010,
|
|
1110,
|
|
10111010,
|
|
1,
|
|
#GOGOEND
|
|
2,
|
|
2,
|
|
2,
|
|
2,
|
|
#END
|
|
|
|
COURSE:Easy
|
|
LEVEL:3
|
|
NOTESDESIGNER0:Colin
|
|
|
|
#START
|
|
2,
|
|
2,
|
|
22,
|
|
2,
|
|
0011,
|
|
0011,
|
|
01,
|
|
1110,
|
|
0220,
|
|
0220,
|
|
0222,
|
|
22,
|
|
0100,
|
|
1110,
|
|
1,
|
|
11,
|
|
1,
|
|
1110,
|
|
11,
|
|
1,
|
|
2002,
|
|
22,
|
|
2,
|
|
22,
|
|
2,
|
|
22,
|
|
2,
|
|
5,
|
|
8,
|
|
1110,
|
|
11,
|
|
1,
|
|
0111,
|
|
11,
|
|
1,
|
|
1,
|
|
,
|
|
#GOGOSTART
|
|
31,
|
|
1110,
|
|
11,
|
|
1,
|
|
22,
|
|
2220,
|
|
22,
|
|
2000000
|
|
#GOGOEND
|
|
0,
|
|
#GOGOSTART
|
|
31,
|
|
1110,
|
|
11,
|
|
1000000
|
|
#GOGOEND
|
|
0,
|
|
#GOGOSTART
|
|
22,
|
|
2220,
|
|
22,
|
|
#GOGOEND
|
|
2,
|
|
#GOGOSTART
|
|
10011000,
|
|
1110,
|
|
1011,
|
|
1,
|
|
20022000,
|
|
2220,
|
|
2022,
|
|
2000000
|
|
#GOGOEND
|
|
0,
|
|
#GOGOSTART
|
|
10011000,
|
|
1110,
|
|
1011,
|
|
1,
|
|
#GOGOEND
|
|
2,
|
|
2,
|
|
2,
|
|
2,
|
|
#END
|