generated from DragonRatTiger/Custom-Charts
523 lines
4.3 KiB
Plaintext
523 lines
4.3 KiB
Plaintext
TITLE:Flyway
|
|
SUBTITLE:--halyosy feat. Leo/need / Project SEKAI COLORFUL STAGE!
|
|
TITLEJA:Flyway
|
|
SUBTITLEJA:halyosy feat. Leo/need 「プロジェクトセカイ カラフルステージ!」より
|
|
PREIMAGE:Flyway.png
|
|
BGMOVIE:Flyway.mp4
|
|
WAVE:Flyway.ogg
|
|
BPM:190
|
|
OFFSET:-1.518
|
|
DEMOSTART:41.939
|
|
MAKER:Colin
|
|
|
|
COURSE:Easy
|
|
LEVEL:2
|
|
BALLOON:12
|
|
SCOREINIT:
|
|
SCOREDIFF:
|
|
NOTESDESIGNER0:Colin
|
|
|
|
#START
|
|
#MEASURE 6/4
|
|
002000,
|
|
#MEASURE 4/4
|
|
2,
|
|
1010,
|
|
1,
|
|
2,
|
|
2,
|
|
2,
|
|
2,
|
|
1,
|
|
1,
|
|
1,
|
|
1,
|
|
1,
|
|
1010,
|
|
1,
|
|
2020,
|
|
3,
|
|
000000004000,
|
|
3,
|
|
7,
|
|
8020,
|
|
2,
|
|
4444,
|
|
4,
|
|
3,
|
|
1,
|
|
#SCROLL 2
|
|
0,
|
|
#SCROLL -1
|
|
0,
|
|
#SCROLL 1
|
|
3030,
|
|
3030,
|
|
6,
|
|
8022,
|
|
20002006,
|
|
0008,
|
|
3030,
|
|
3,
|
|
#GOGOSTART
|
|
2020,
|
|
2,
|
|
1010,
|
|
1,
|
|
#GOGOEND
|
|
4040,
|
|
4040,
|
|
#GOGOSTART
|
|
3030,
|
|
3,
|
|
2020,
|
|
2,
|
|
1010,
|
|
1060,
|
|
#GOGOEND
|
|
0,
|
|
8,
|
|
2020,
|
|
2,
|
|
1010,
|
|
1,
|
|
,
|
|
6,
|
|
8,
|
|
1010,
|
|
1
|
|
#SCROLL 0.6
|
|
000,
|
|
2,
|
|
,
|
|
2,
|
|
,
|
|
2,
|
|
,
|
|
2,
|
|
,
|
|
1010,
|
|
1,
|
|
2020,
|
|
2,
|
|
1110,
|
|
1110,
|
|
2
|
|
#SCROLL 1
|
|
000,
|
|
6008,
|
|
6800,
|
|
3,
|
|
000000004000,
|
|
3030,
|
|
3333,
|
|
#GOGOSTART
|
|
3010,
|
|
1,
|
|
2020,
|
|
1,
|
|
#GOGOEND
|
|
3030,
|
|
3,
|
|
#GOGOSTART
|
|
2020,
|
|
2,
|
|
1010,
|
|
1011,
|
|
1010,
|
|
#GOGOEND
|
|
1,
|
|
2,
|
|
2,
|
|
2,
|
|
2,
|
|
2,
|
|
2,
|
|
1010,
|
|
1,
|
|
,
|
|
#END
|
|
|
|
COURSE:Normal
|
|
LEVEL:2
|
|
BALLOON:12,12
|
|
SCOREINIT:
|
|
SCOREDIFF:
|
|
NOTESDESIGNER1:Colin
|
|
|
|
#START
|
|
#MEASURE 6/4
|
|
002000,
|
|
#MEASURE 4/4
|
|
2,
|
|
1010,
|
|
1,
|
|
2020,
|
|
2220,
|
|
2020,
|
|
2020,
|
|
1,
|
|
1010,
|
|
1020,
|
|
1020,
|
|
1,
|
|
1011,
|
|
1020,
|
|
2220,
|
|
3,
|
|
000000004000,
|
|
3,
|
|
7,
|
|
8020,
|
|
2022,
|
|
4444,
|
|
4,
|
|
3,
|
|
1,
|
|
#SCROLL 2
|
|
0,
|
|
#SCROLL -1
|
|
0,
|
|
#SCROLL 1
|
|
3030,
|
|
3033,
|
|
6,
|
|
8022,
|
|
20002006,
|
|
0008,
|
|
3030,
|
|
3,
|
|
#GOGOSTART
|
|
2020,
|
|
2220,
|
|
1010,
|
|
1110,
|
|
#GOGOEND
|
|
4040,
|
|
4040,
|
|
#GOGOSTART
|
|
3030,
|
|
3022,
|
|
2020,
|
|
2011,
|
|
1010,
|
|
1060,
|
|
#GOGOEND
|
|
0,
|
|
8,
|
|
2020,
|
|
2220,
|
|
1011,
|
|
1011,
|
|
1010,
|
|
6,
|
|
8,
|
|
1010,
|
|
1
|
|
#SCROLL 0.6
|
|
000,
|
|
2,
|
|
,
|
|
2,
|
|
,
|
|
2,
|
|
,
|
|
2,
|
|
,
|
|
1010,
|
|
1,
|
|
2020,
|
|
2,
|
|
1110,
|
|
1111,
|
|
2
|
|
#SCROLL 1
|
|
000,
|
|
6008,
|
|
6800,
|
|
3070,
|
|
000000804000,
|
|
3030,
|
|
3333,
|
|
#GOGOSTART
|
|
3010,
|
|
1110,
|
|
2020,
|
|
1110,
|
|
#GOGOEND
|
|
3030,
|
|
3,
|
|
#GOGOSTART
|
|
2022,
|
|
2022,
|
|
1010,
|
|
1111,
|
|
1010,
|
|
#GOGOEND
|
|
1,
|
|
2,
|
|
2,
|
|
2,
|
|
2,
|
|
2,
|
|
2,
|
|
1010,
|
|
1,
|
|
,
|
|
#END
|
|
|
|
COURSE:Hard
|
|
LEVEL:5
|
|
BALLOON:7,3,3,14
|
|
SCOREINIT:
|
|
SCOREDIFF:
|
|
NOTESDESIGNER2:Colin
|
|
|
|
#START
|
|
#MEASURE 6/4
|
|
222212,
|
|
#MEASURE 4/4
|
|
2222,
|
|
100202000201,
|
|
,
|
|
100202002002,
|
|
002002000000,
|
|
100202002002,
|
|
002002000000,
|
|
1021,
|
|
200200101000,
|
|
5080,
|
|
5080,
|
|
200002001100,
|
|
100200202000,
|
|
500000008000,
|
|
1020,
|
|
300001000100,
|
|
101002000000,
|
|
300001002000,
|
|
202002000000,
|
|
300003000300,
|
|
3022,
|
|
1111,
|
|
1021,
|
|
1,
|
|
2,
|
|
#SCROLL 2
|
|
0,
|
|
#SCROLL -1
|
|
0,
|
|
#SCROLL 1
|
|
3333,
|
|
3333,
|
|
6,
|
|
8,
|
|
000000102000,
|
|
700000080000,
|
|
3030,
|
|
3333,
|
|
#GOGOSTART
|
|
300001002001,
|
|
0022,
|
|
200202002002,
|
|
0011,
|
|
#GOGOEND
|
|
4040,
|
|
4030,
|
|
#GOGOSTART
|
|
1111,
|
|
1022,
|
|
1122,
|
|
1122,
|
|
2020,
|
|
2060,
|
|
#GOGOEND
|
|
0,
|
|
8,
|
|
200202000200,
|
|
100102000201,
|
|
000101000201,
|
|
000202000200,
|
|
1210,
|
|
5,
|
|
8,
|
|
2787,
|
|
8
|
|
#SCROLL 0.6
|
|
0002020,
|
|
100002002001,
|
|
0011,
|
|
200001002001,
|
|
0022,
|
|
100101000000,
|
|
2011,
|
|
2020,
|
|
1012,
|
|
200002002002,
|
|
0011,
|
|
200202002001,
|
|
0022,
|
|
3333,
|
|
3333,
|
|
3
|
|
#SCROLL 1
|
|
000,
|
|
6008,
|
|
6008,
|
|
0070,
|
|
000000008000,
|
|
3030,
|
|
3333,
|
|
#GOGOSTART
|
|
300001002001,
|
|
0022,
|
|
200202002002,
|
|
0011,
|
|
#GOGOEND
|
|
4040,
|
|
4030,
|
|
#GOGOSTART
|
|
1111,
|
|
1022,
|
|
1122,
|
|
1122,
|
|
2020,
|
|
#GOGOEND
|
|
2,
|
|
2222,
|
|
21102010,
|
|
10210220,
|
|
2,
|
|
1122,
|
|
11201010,
|
|
10110110,
|
|
2,
|
|
,
|
|
#END
|
|
|
|
COURSE:Oni
|
|
LEVEL:8
|
|
SCOREINIT:
|
|
SCOREDIFF:
|
|
NOTESDESIGNER3:Colin
|
|
|
|
#START
|
|
#MEASURE 6/4
|
|
222212,
|
|
#MEASURE 4/4
|
|
2222,
|
|
200202000202,
|
|
0012,
|
|
200202002002,
|
|
001002000200,
|
|
100201002002,
|
|
001002100200,
|
|
200200202101,
|
|
201200102002,
|
|
102111202001,
|
|
112121202002,
|
|
202002002212,
|
|
101101102002,
|
|
201212211001,
|
|
102102200000,
|
|
300002000202,
|
|
101101104000,
|
|
300102002202,
|
|
122111112101,
|
|
200403001100,
|
|
100201202222,
|
|
100201102101,
|
|
222222102000,
|
|
100101001200,
|
|
2,
|
|
#SCROLL 2
|
|
0,
|
|
#SCROLL -1
|
|
0,
|
|
#SCROLL 1
|
|
101200202200,
|
|
102102102211,
|
|
201102101201,
|
|
2022,
|
|
102222102101,
|
|
222111104000,
|
|
400000400002,
|
|
102101201222,
|
|
#GOGOSTART
|
|
100101201102,
|
|
102100201102,
|
|
100201201202,
|
|
200000001000200000001000100000002000100100100100,
|
|
#GOGOEND
|
|
2040,
|
|
400000403001,
|
|
#GOGOSTART
|
|
200201102002,
|
|
202111202200,
|
|
4434,
|
|
4444,
|
|
300222100222,
|
|
102101200211,
|
|
#GOGOEND
|
|
102001200102,
|
|
101201222102,
|
|
101101201101,
|
|
100201101222,
|
|
102101202102,
|
|
102201202101,
|
|
100102011111,
|
|
202102011111,
|
|
201102011111,
|
|
200222100112,
|
|
2
|
|
#SCROLL 0.6
|
|
0001020,
|
|
200102002001,
|
|
0022,
|
|
200101002002,
|
|
0021,
|
|
100101002002,
|
|
0222,
|
|
100102001001,
|
|
0022,
|
|
100202202202,
|
|
101202202000,
|
|
100202202202,
|
|
002102202102,
|
|
122122122122,
|
|
122122122122,
|
|
1
|
|
#SCROLL 1
|
|
000,
|
|
4,
|
|
102202102101,
|
|
200000222111,
|
|
111111112000,
|
|
400000400002,
|
|
102111201222,
|
|
#GOGOSTART
|
|
100101201002,
|
|
102100201002,
|
|
100200200202,
|
|
200000001000200000001000100000002000100100100100,
|
|
#GOGOEND
|
|
2040,
|
|
400000403001,
|
|
#GOGOSTART
|
|
200200102002,
|
|
202100100200,
|
|
3433,
|
|
3434,
|
|
400222100222,
|
|
#GOGOEND
|
|
1,
|
|
2222,
|
|
11102010,
|
|
20210220,
|
|
2000200010112020,
|
|
2000202220202000,
|
|
1010202210111000,
|
|
20220220,
|
|
2,
|
|
,
|
|
#END
|