generated from DragonRatTiger/Custom-Charts
815 lines
6.5 KiB
Plaintext
815 lines
6.5 KiB
Plaintext
TITLE:GUILTY
|
|
SUBTITLE:--Mage-P feat. Yi Xi
|
|
TITLEJA:GUILTY
|
|
SUBTITLEJA:メージP feat. Yi Xi
|
|
PREIMAGE:GUILTY.png
|
|
BGMOVIE:GUILTY.mp4
|
|
WAVE:GUILTY.ogg
|
|
BPM:130
|
|
OFFSET:-0.923
|
|
DEMOSTART:47.942
|
|
GENRE:ボーカロイド
|
|
MAKER:Colin
|
|
|
|
COURSE:Easy
|
|
LEVEL:4
|
|
NOTESDESIGNER0:Colin
|
|
|
|
#START
|
|
,
|
|
31,
|
|
1110,
|
|
11,
|
|
1,
|
|
42,
|
|
2220,
|
|
22,
|
|
2220,
|
|
10001011,
|
|
1011,
|
|
10111010,
|
|
11,
|
|
20002022,
|
|
2022,
|
|
20222020,
|
|
22,
|
|
31,
|
|
31,
|
|
31,
|
|
58,
|
|
42,
|
|
42,
|
|
4022,
|
|
#MEASURE 6/4
|
|
202220000000,
|
|
#MEASURE 4/4
|
|
#GOGOSTART
|
|
3
|
|
#GOGOEND
|
|
0
|
|
#GOGOSTART
|
|
3
|
|
#GOGOEND
|
|
0
|
|
#GOGOSTART
|
|
3000,
|
|
1010111
|
|
#GOGOEND
|
|
0,
|
|
#GOGOSTART
|
|
4
|
|
#GOGOEND
|
|
0
|
|
#GOGOSTART
|
|
4
|
|
#GOGOEND
|
|
0
|
|
#GOGOSTART
|
|
4000,
|
|
2020222
|
|
#GOGOEND
|
|
0,
|
|
#GOGOSTART
|
|
3
|
|
#GOGOEND
|
|
0
|
|
#GOGOSTART
|
|
3
|
|
#GOGOEND
|
|
0
|
|
#GOGOSTART
|
|
3000,
|
|
1010111
|
|
#GOGOEND
|
|
1,
|
|
#GOGOSTART
|
|
300
|
|
#GOGOEND
|
|
0
|
|
#GOGOSTART
|
|
300
|
|
#GOGOEND
|
|
0,
|
|
#GOGOSTART
|
|
444
|
|
#GOGOEND
|
|
0,
|
|
#GOGOSTART
|
|
3
|
|
#GOGOEND
|
|
0
|
|
#GOGOSTART
|
|
3
|
|
#GOGOEND
|
|
0
|
|
#GOGOSTART
|
|
3000,
|
|
1010111
|
|
#GOGOEND
|
|
0,
|
|
#GOGOSTART
|
|
4
|
|
#GOGOEND
|
|
0
|
|
#GOGOSTART
|
|
4
|
|
#GOGOEND
|
|
0
|
|
#GOGOSTART
|
|
4000,
|
|
2020222
|
|
#GOGOEND
|
|
0,
|
|
#GOGOSTART
|
|
3
|
|
#GOGOEND
|
|
0
|
|
#GOGOSTART
|
|
3
|
|
#GOGOEND
|
|
0
|
|
#GOGOSTART
|
|
3000,
|
|
1010111
|
|
#GOGOEND
|
|
1,
|
|
#GOGOSTART
|
|
300
|
|
#GOGOEND
|
|
0
|
|
#GOGOSTART
|
|
300
|
|
#GOGOEND
|
|
0,
|
|
#GOGOSTART
|
|
444
|
|
#GOGOEND
|
|
0,
|
|
#GOGOSTART
|
|
300
|
|
#GOGOEND
|
|
0
|
|
#GOGOSTART
|
|
300
|
|
#GOGOEND
|
|
0,
|
|
#GOGOSTART
|
|
3333,
|
|
#GOGOEND
|
|
6
|
|
#GOGOSTART
|
|
000,
|
|
8,
|
|
11,
|
|
1110,
|
|
22,
|
|
2020200
|
|
#GOGOEND
|
|
0,
|
|
#GOGOSTART
|
|
300
|
|
#GOGOEND
|
|
0
|
|
#GOGOSTART
|
|
300
|
|
#GOGOEND
|
|
0,
|
|
#GOGOSTART
|
|
3
|
|
#GOGOEND
|
|
0
|
|
#GOGOSTART
|
|
3
|
|
#GOGOEND
|
|
0
|
|
#GOGOSTART
|
|
3
|
|
#GOGOEND
|
|
0
|
|
#GOGOSTART
|
|
3
|
|
#GOGOEND
|
|
0,
|
|
#END
|
|
|
|
COURSE:Normal
|
|
LEVEL:4
|
|
NOTESDESIGNER1:Colin
|
|
|
|
#START
|
|
,
|
|
30001011,
|
|
10101011,
|
|
1110,
|
|
1,
|
|
40202022,
|
|
2220,
|
|
20202022,
|
|
20222000,
|
|
10111011,
|
|
10101011,
|
|
10111010,
|
|
11,
|
|
20222022,
|
|
20202022,
|
|
20222020,
|
|
22,
|
|
30011010,
|
|
3011,
|
|
30011010,
|
|
58,
|
|
40022020,
|
|
4022,
|
|
40202022,
|
|
#MEASURE 6/4
|
|
202220000000,
|
|
#MEASURE 4/4
|
|
#GOGOSTART
|
|
3
|
|
#GOGOEND
|
|
0
|
|
#GOGOSTART
|
|
3
|
|
#GOGOEND
|
|
0
|
|
#GOGOSTART
|
|
3011,
|
|
1011111
|
|
#GOGOEND
|
|
0,
|
|
#GOGOSTART
|
|
4
|
|
#GOGOEND
|
|
0
|
|
#GOGOSTART
|
|
4
|
|
#GOGOEND
|
|
0
|
|
#GOGOSTART
|
|
4000,
|
|
2220222
|
|
#GOGOEND
|
|
0,
|
|
#GOGOSTART
|
|
3
|
|
#GOGOEND
|
|
0
|
|
#GOGOSTART
|
|
3
|
|
#GOGOEND
|
|
0
|
|
#GOGOSTART
|
|
3011,
|
|
1010111
|
|
#GOGOEND
|
|
1,
|
|
#GOGOSTART
|
|
300
|
|
#GOGOEND
|
|
0
|
|
#GOGOSTART
|
|
300
|
|
#GOGOEND
|
|
0,
|
|
#GOGOSTART
|
|
444
|
|
#GOGOEND
|
|
0,
|
|
#GOGOSTART
|
|
3
|
|
#GOGOEND
|
|
0
|
|
#GOGOSTART
|
|
3
|
|
#GOGOEND
|
|
0
|
|
#GOGOSTART
|
|
3011,
|
|
1011111
|
|
#GOGOEND
|
|
0,
|
|
#GOGOSTART
|
|
4
|
|
#GOGOEND
|
|
0
|
|
#GOGOSTART
|
|
4
|
|
#GOGOEND
|
|
0
|
|
#GOGOSTART
|
|
4022,
|
|
2022222
|
|
#GOGOEND
|
|
0,
|
|
#GOGOSTART
|
|
3
|
|
#GOGOEND
|
|
0
|
|
#GOGOSTART
|
|
3
|
|
#GOGOEND
|
|
0
|
|
#GOGOSTART
|
|
3011,
|
|
1010111
|
|
#GOGOEND
|
|
1,
|
|
#GOGOSTART
|
|
300
|
|
#GOGOEND
|
|
0
|
|
#GOGOSTART
|
|
300
|
|
#GOGOEND
|
|
0,
|
|
#GOGOSTART
|
|
444
|
|
#GOGOEND
|
|
0,
|
|
#GOGOSTART
|
|
300
|
|
#GOGOEND
|
|
0
|
|
#GOGOSTART
|
|
300
|
|
#GOGOEND
|
|
0,
|
|
#GOGOSTART
|
|
3333,
|
|
#GOGOEND
|
|
6
|
|
#GOGOSTART
|
|
000,
|
|
8,
|
|
10101011,
|
|
1110,
|
|
20202022,
|
|
2020200
|
|
#GOGOEND
|
|
0,
|
|
#GOGOSTART
|
|
300
|
|
#GOGOEND
|
|
0
|
|
#GOGOSTART
|
|
300
|
|
#GOGOEND
|
|
0,
|
|
#GOGOSTART
|
|
3
|
|
#GOGOEND
|
|
0
|
|
#GOGOSTART
|
|
3
|
|
#GOGOEND
|
|
0
|
|
#GOGOSTART
|
|
3
|
|
#GOGOEND
|
|
0
|
|
#GOGOSTART
|
|
3
|
|
#GOGOEND
|
|
0,
|
|
#END
|
|
|
|
COURSE:Hard
|
|
LEVEL:6
|
|
NOTESDESIGNER2:Colin
|
|
|
|
#START
|
|
,
|
|
30212022,
|
|
1002202010011010,
|
|
10122021,
|
|
2000201010011010,
|
|
10122012,
|
|
50800012,
|
|
22121010,
|
|
3443,
|
|
3000201110102000,
|
|
1000200100102010,
|
|
1000200010111010,
|
|
1000201020101011,
|
|
1000201020111010,
|
|
5000800020022020,
|
|
10212010,
|
|
21214030,
|
|
30012010,
|
|
1001001020111010,
|
|
1011001020111020,
|
|
1001001020111010,
|
|
10012010,
|
|
1001001020111010,
|
|
12221012,
|
|
#MEASURE 6/4
|
|
222120120000,
|
|
#MEASURE 4/4
|
|
#GOGOSTART
|
|
30
|
|
#GOGOEND
|
|
00
|
|
#GOGOSTART
|
|
30
|
|
#GOGOEND
|
|
00
|
|
#GOGOSTART
|
|
30002202,
|
|
00102020100101
|
|
#GOGOEND
|
|
00,
|
|
#GOGOSTART
|
|
40
|
|
#GOGOEND
|
|
00
|
|
#GOGOSTART
|
|
40
|
|
#GOGOEND
|
|
00
|
|
#GOGOSTART
|
|
40001102,
|
|
00102020101101
|
|
#GOGOEND
|
|
00,
|
|
#GOGOSTART
|
|
30
|
|
#GOGOEND
|
|
00
|
|
#GOGOSTART
|
|
30
|
|
#GOGOEND
|
|
00
|
|
#GOGOSTART
|
|
30002202,
|
|
00102020100100
|
|
#GOGOEND
|
|
00,
|
|
#GOGOSTART
|
|
302200
|
|
#GOGOEND
|
|
00
|
|
#GOGOSTART
|
|
302200
|
|
#GOGOEND
|
|
20,
|
|
#GOGOSTART
|
|
333333
|
|
#GOGOEND
|
|
30,
|
|
#GOGOSTART
|
|
30
|
|
#GOGOEND
|
|
00
|
|
#GOGOSTART
|
|
30
|
|
#GOGOEND
|
|
00
|
|
#GOGOSTART
|
|
30002202,
|
|
00102020100101
|
|
#GOGOEND
|
|
00,
|
|
#GOGOSTART
|
|
40
|
|
#GOGOEND
|
|
00
|
|
#GOGOSTART
|
|
40
|
|
#GOGOEND
|
|
00
|
|
#GOGOSTART
|
|
40001102,
|
|
00102020101101
|
|
#GOGOEND
|
|
00,
|
|
#GOGOSTART
|
|
30
|
|
#GOGOEND
|
|
00
|
|
#GOGOSTART
|
|
30
|
|
#GOGOEND
|
|
00
|
|
#GOGOSTART
|
|
30002202,
|
|
00102020100100
|
|
#GOGOEND
|
|
00,
|
|
#GOGOSTART
|
|
302
|
|
#GOGOEND
|
|
1
|
|
#GOGOSTART
|
|
302
|
|
#GOGOEND
|
|
2,
|
|
#GOGOSTART
|
|
333333
|
|
#GOGOEND
|
|
30,
|
|
#GOGOSTART
|
|
302
|
|
#GOGOEND
|
|
1
|
|
#GOGOSTART
|
|
302
|
|
#GOGOEND
|
|
2,
|
|
#GOGOSTART
|
|
33333333,
|
|
#GOGOEND
|
|
6
|
|
#GOGOSTART
|
|
000,
|
|
8,
|
|
1010201110110020,
|
|
1000200010222020,
|
|
10201122,
|
|
10222020100220
|
|
#GOGOEND
|
|
20,
|
|
#GOGOSTART
|
|
302
|
|
#GOGOEND
|
|
0
|
|
#GOGOSTART
|
|
302
|
|
#GOGOEND
|
|
0,
|
|
#GOGOSTART
|
|
3
|
|
#GOGOEND
|
|
2
|
|
#GOGOSTART
|
|
3
|
|
#GOGOEND
|
|
2
|
|
#GOGOSTART
|
|
3
|
|
#GOGOEND
|
|
2
|
|
#GOGOSTART
|
|
3
|
|
#GOGOEND
|
|
2,
|
|
#END
|
|
|
|
COURSE:Oni
|
|
LEVEL:8
|
|
NOTESDESIGNER3:Colin
|
|
|
|
#START
|
|
,
|
|
3001202011012020,
|
|
1011201211012022,
|
|
1012202012012021,
|
|
1021201012212022,
|
|
1001202012112120,
|
|
1021202011012022,
|
|
1101202010112121,
|
|
1011202012122020,
|
|
3011202010222012,
|
|
1011201010210222,
|
|
1101202012012022,
|
|
1101202012212021,
|
|
1011202011012122,
|
|
1011201012212020,
|
|
1011202010212020,
|
|
32323232,
|
|
3001011020121210,
|
|
1021021020212011,
|
|
1022011020212210,
|
|
1022011020122212,
|
|
1001011020121210,
|
|
1021021020212011,
|
|
1012022021121022,
|
|
#MEASURE 6/4
|
|
102120212111222200000000,
|
|
#MEASURE 4/4
|
|
#GOGOSTART
|
|
#SCROLL 1.5
|
|
30
|
|
#GOGOEND
|
|
#SCROLL 1
|
|
20
|
|
#GOGOSTART
|
|
#SCROLL 1.5
|
|
30
|
|
#GOGOEND
|
|
#SCROLL 1
|
|
20
|
|
#GOGOSTART
|
|
#SCROLL 1.5
|
|
30
|
|
#SCROLL 1
|
|
102102,
|
|
01202020101202
|
|
#GOGOEND
|
|
00,
|
|
#GOGOSTART
|
|
#SCROLL 1.5
|
|
30
|
|
#GOGOEND
|
|
#SCROLL 1
|
|
20
|
|
#GOGOSTART
|
|
#SCROLL 1.5
|
|
30
|
|
#GOGOEND
|
|
#SCROLL 1
|
|
20
|
|
#GOGOSTART
|
|
#SCROLL 1.5
|
|
30
|
|
#SCROLL 1
|
|
102102,
|
|
02112021202102
|
|
#GOGOEND
|
|
00,
|
|
#GOGOSTART
|
|
#SCROLL 1.5
|
|
30
|
|
#GOGOEND
|
|
#SCROLL 1
|
|
20
|
|
#GOGOSTART
|
|
#SCROLL 1.5
|
|
30
|
|
#GOGOEND
|
|
#SCROLL 1
|
|
20
|
|
#GOGOSTART
|
|
#SCROLL 1.5
|
|
30
|
|
#SCROLL 1
|
|
102102,
|
|
01202020101202
|
|
#GOGOEND
|
|
10,
|
|
#GOGOSTART
|
|
302201
|
|
#GOGOEND
|
|
10
|
|
#GOGOSTART
|
|
302201
|
|
#GOGOEND
|
|
10,
|
|
#GOGOSTART
|
|
302020201222
|
|
#GOGOEND
|
|
1222,
|
|
#GOGOSTART
|
|
#SCROLL 1.5
|
|
30
|
|
#GOGOEND
|
|
#SCROLL 1
|
|
20
|
|
#GOGOSTART
|
|
#SCROLL 1.5
|
|
30
|
|
#GOGOEND
|
|
#SCROLL 1
|
|
20
|
|
#GOGOSTART
|
|
#SCROLL 1.5
|
|
30
|
|
#SCROLL 1
|
|
102102,
|
|
01202120121202
|
|
#GOGOEND
|
|
00,
|
|
#GOGOSTART
|
|
#SCROLL 1.5
|
|
30
|
|
#GOGOEND
|
|
#SCROLL 1
|
|
20
|
|
#GOGOSTART
|
|
#SCROLL 1.5
|
|
30
|
|
#GOGOEND
|
|
#SCROLL 1
|
|
20
|
|
#GOGOSTART
|
|
#SCROLL 1.5
|
|
30
|
|
#SCROLL 1
|
|
102122,
|
|
02102021202102
|
|
#GOGOEND
|
|
00,
|
|
#GOGOSTART
|
|
#SCROLL 1.5
|
|
30
|
|
#GOGOEND
|
|
#SCROLL 1
|
|
20
|
|
#GOGOSTART
|
|
#SCROLL 1.5
|
|
30
|
|
#GOGOEND
|
|
#SCROLL 1
|
|
20
|
|
#GOGOSTART
|
|
#SCROLL 1.5
|
|
30
|
|
#SCROLL 1
|
|
102212,
|
|
01202120101221
|
|
#GOGOEND
|
|
10,
|
|
#GOGOSTART
|
|
302220
|
|
#GOGOEND
|
|
20
|
|
#GOGOSTART
|
|
302220
|
|
#GOGOEND
|
|
20,
|
|
#GOGOSTART
|
|
302020201222
|
|
#GOGOEND
|
|
1222,
|
|
#GOGOSTART
|
|
#SCROLL 2
|
|
3
|
|
#SCROLL 1
|
|
02220
|
|
#GOGOEND
|
|
20
|
|
#GOGOSTART
|
|
302220
|
|
#GOGOEND
|
|
20,
|
|
#GOGOSTART
|
|
3020202012221222,
|
|
#GOGOEND
|
|
1
|
|
#GOGOSTART
|
|
#SCROLL 3
|
|
600,
|
|
80
|
|
#SCROLL 1
|
|
01202010212112,
|
|
1001202012102022,
|
|
1011202010121222,
|
|
1011202012102022,
|
|
10112020102121
|
|
#GOGOEND
|
|
12,
|
|
#GOGOSTART
|
|
#SCROLL 1
|
|
1
|
|
#SCROLL 1.06452
|
|
2
|
|
#SCROLL 1.12903
|
|
2
|
|
#GOGOEND
|
|
#SCROLL 1.19355
|
|
2
|
|
#GOGOSTART
|
|
#SCROLL 1.25806
|
|
3
|
|
#SCROLL 1.32258
|
|
2
|
|
#SCROLL 1.3871
|
|
2
|
|
#GOGOEND
|
|
#SCROLL 1.45161
|
|
2,
|
|
#GOGOSTART
|
|
#SCROLL 1.51613
|
|
3000
|
|
#GOGOEND
|
|
#SCROLL 1.58065
|
|
2000
|
|
#GOGOSTART
|
|
#SCROLL 1.64516
|
|
3000
|
|
#GOGOEND
|
|
#SCROLL 1.70968
|
|
2000
|
|
#GOGOSTART
|
|
#SCROLL 1.77419
|
|
30
|
|
#SCROLL 1.80645
|
|
20
|
|
#GOGOEND
|
|
#SCROLL 1.83871
|
|
20
|
|
#SCROLL 1.87097
|
|
20
|
|
#GOGOSTART
|
|
#SCROLL 1.90323
|
|
30
|
|
#SCROLL 1.93548
|
|
20
|
|
#GOGOEND
|
|
#SCROLL 1.96774
|
|
20
|
|
#BARLINEOFF
|
|
#SCROLL 2
|
|
2
|
|
#SCROLL 1
|
|
0,
|
|
#END |