generated from DragonRatTiger/Custom-Charts
461 lines
5.3 KiB
Plaintext
461 lines
5.3 KiB
Plaintext
TITLE:Gehenna
|
|
SUBTITLE:--wotaku feat. Miku Hatsune
|
|
TITLEJA:ジェヘナ
|
|
SUBTITLEJA:wotaku feat. 初音ミク
|
|
PREIMAGE:Gehenna.png
|
|
BGMOVIE:Gehenna.mp4
|
|
WAVE:Gehenna.ogg
|
|
BPM:128
|
|
OFFSET:-0.602
|
|
DEMOSTART:54.508
|
|
MAKER:Colin
|
|
|
|
COURSE:Easy
|
|
LEVEL:2
|
|
SCOREINIT:
|
|
SCOREDIFF:
|
|
NOTESDESIGNER0:Colin
|
|
|
|
#START
|
|
,
|
|
#GOGOSTART
|
|
1110,
|
|
1110,
|
|
1110,
|
|
1110,
|
|
#GOGOEND
|
|
2020,
|
|
2,
|
|
2020,
|
|
2,
|
|
2020,
|
|
2,
|
|
2,
|
|
1010,
|
|
1,
|
|
1110,
|
|
2020,
|
|
2220,
|
|
1020,
|
|
1110,
|
|
2,
|
|
,
|
|
1010,
|
|
1002,
|
|
2020,
|
|
2020,
|
|
1010,
|
|
1,
|
|
1010,
|
|
2,
|
|
#GOGOSTART
|
|
4040,
|
|
4,
|
|
3030,
|
|
3,
|
|
4040,
|
|
4,
|
|
3030,
|
|
3,
|
|
40
|
|
#GOGOEND
|
|
40,
|
|
#GOGOSTART
|
|
3010,
|
|
1,
|
|
2220,
|
|
2,
|
|
1110,
|
|
2,
|
|
1110,
|
|
20000020000020000020000
|
|
#GOGOEND
|
|
0,
|
|
,
|
|
1,
|
|
1,
|
|
1,
|
|
1,
|
|
1110,
|
|
1110,
|
|
2222,
|
|
2222,
|
|
0
|
|
#GOGOSTART
|
|
440,
|
|
4,
|
|
3030,
|
|
3,
|
|
4040,
|
|
4,
|
|
3030,
|
|
3,
|
|
40
|
|
#GOGOEND
|
|
40,
|
|
#GOGOSTART
|
|
3010,
|
|
1010,
|
|
5,
|
|
8,
|
|
5,
|
|
0800,
|
|
1010,
|
|
1,
|
|
20000000000
|
|
#GOGOEND
|
|
0200000000000,
|
|
,
|
|
,
|
|
#GOGOSTART
|
|
1010,
|
|
1110,
|
|
1010,
|
|
1110,
|
|
1010,
|
|
1110,
|
|
2020,
|
|
2222,
|
|
#GOGOEND
|
|
2,
|
|
4,
|
|
#END
|
|
|
|
COURSE:Normal
|
|
LEVEL:5
|
|
SCOREINIT:
|
|
SCOREDIFF:
|
|
NOTESDESIGNER1:Colin
|
|
|
|
#START
|
|
2020,
|
|
#GOGOSTART
|
|
10101110,
|
|
10101110,
|
|
10101110,
|
|
1111,
|
|
#GOGOEND
|
|
20022000,
|
|
2220,
|
|
20022000,
|
|
2220,
|
|
20022000,
|
|
2220,
|
|
2,
|
|
1011,
|
|
10001001,
|
|
1110,
|
|
20022000,
|
|
20222020,
|
|
1020,
|
|
11101010,
|
|
2,
|
|
,
|
|
1011,
|
|
1012,
|
|
2022,
|
|
20002001,
|
|
1011,
|
|
1010,
|
|
1110,
|
|
2,
|
|
#GOGOSTART
|
|
4140,
|
|
4120,
|
|
3230,
|
|
3210,
|
|
4140,
|
|
4120,
|
|
3130,
|
|
3210,
|
|
41
|
|
#GOGOEND
|
|
40,
|
|
#GOGOSTART
|
|
30111010,
|
|
1020,
|
|
20222020,
|
|
2020,
|
|
10111010,
|
|
2010,
|
|
10111010,
|
|
20000020020020000020020
|
|
#GOGOEND
|
|
0,
|
|
,
|
|
1110,
|
|
1110,
|
|
1110,
|
|
1110,
|
|
10111010,
|
|
10111000,
|
|
20202220,
|
|
20222020,
|
|
0
|
|
#GOGOSTART
|
|
441,
|
|
4010,
|
|
3232,
|
|
3020,
|
|
4141,
|
|
4010,
|
|
3232,
|
|
3001,
|
|
41
|
|
#GOGOEND
|
|
40,
|
|
#GOGOSTART
|
|
30111010,
|
|
1011,
|
|
5,
|
|
8022,
|
|
5,
|
|
0811,
|
|
1011,
|
|
10002022,
|
|
20000020000
|
|
#GOGOEND
|
|
0200000000000,
|
|
,
|
|
,
|
|
#GOGOSTART
|
|
10101110,
|
|
10101110,
|
|
10101110,
|
|
10101110,
|
|
10101110,
|
|
10101110,
|
|
20202220,
|
|
22222222,
|
|
#GOGOEND
|
|
0,
|
|
4,
|
|
#END
|
|
|
|
COURSE:Hard
|
|
LEVEL:5
|
|
SCOREINIT:
|
|
SCOREDIFF:
|
|
NOTESDESIGNER2:Colin
|
|
|
|
#START
|
|
2222,
|
|
#GOGOSTART
|
|
12212112,
|
|
01212112,
|
|
12212112,
|
|
01212112,
|
|
#GOGOEND
|
|
20022001,
|
|
11112000,
|
|
20012001,
|
|
11222200,
|
|
10022001,
|
|
21212121,
|
|
20202022,
|
|
100101002002000200200100,
|
|
20012002,
|
|
22222000,
|
|
20012001,
|
|
11222200,
|
|
20012001,
|
|
21212121,
|
|
2222,
|
|
20222222,
|
|
10201120,
|
|
1215,
|
|
8121,
|
|
5008,
|
|
11101020,
|
|
100000000010000000100000200000000000100000100100,
|
|
1000201010002011,
|
|
100100200100200000202200,
|
|
#GOGOSTART
|
|
4001001040010010,
|
|
100200100101000200100200,
|
|
4001001020010010,
|
|
11121022,
|
|
200202001005000000800000,
|
|
200002002002000000100100,
|
|
200102002002000200200200,
|
|
200002000000000000100100,
|
|
200202002002
|
|
#GOGOEND
|
|
000000100000,
|
|
#GOGOSTART
|
|
20102012,
|
|
10201122,
|
|
20202222,
|
|
21212121,
|
|
20102210,
|
|
20221020,
|
|
12121212,
|
|
10010010010020020020020
|
|
#GOGOEND
|
|
0,
|
|
00000022,
|
|
2020,
|
|
200000200002000200200200,
|
|
200020000000200002000000,
|
|
2220,
|
|
1010,
|
|
1110,
|
|
11111111,
|
|
100200100200100200202200,
|
|
4001
|
|
#GOGOSTART
|
|
001040010010,
|
|
100200100101000200100200,
|
|
4001001020010010,
|
|
11121022,
|
|
200202001005000000800000,
|
|
200002002002000000100100,
|
|
200102002002000200200200,
|
|
200002000000000000100100,
|
|
200202002002
|
|
#GOGOEND
|
|
000000100000,
|
|
#GOGOSTART
|
|
20202022,
|
|
20111111,
|
|
5,
|
|
80201111,
|
|
5,
|
|
80201121,
|
|
10201120,
|
|
10201122,
|
|
10010010010
|
|
#GOGOEND
|
|
0100100100100,
|
|
2200,
|
|
,
|
|
#GOGOSTART
|
|
12212112,
|
|
01212112,
|
|
12212112,
|
|
01212112,
|
|
22212112,
|
|
01212112,
|
|
12212112,
|
|
01212112,
|
|
#GOGOEND
|
|
2,
|
|
4,
|
|
#END
|
|
|
|
COURSE:Oni
|
|
LEVEL:9
|
|
SCOREINIT:
|
|
SCOREDIFF:
|
|
NOTESDESIGNER3:Colin
|
|
|
|
#START
|
|
201201201211101201211111,
|
|
#GOGOSTART
|
|
2
|
|
#SCROLL 1.3
|
|
01100200101200101100200,
|
|
201100200101200101100200,
|
|
201100200101200100101200,
|
|
200101200101211211201200,
|
|
#GOGOEND
|
|
400100100200100202100100,
|
|
100200200100200202100200,
|
|
200100100100200202101200,
|
|
200100200202100202101010,
|
|
200200100200200202100100,
|
|
200101101101200202100200,
|
|
200200100200102201000200,
|
|
200101002002100200200100,
|
|
402202100101200102100100,
|
|
100200200100202102100200,
|
|
200202100100200102101100,
|
|
200100200201200202101200,
|
|
200201201100200102100100,
|
|
200100200102100102100200,
|
|
201202102102101202101200,
|
|
100100100200100202101200,
|
|
400200100200200101101202,
|
|
100202101202100200201020,
|
|
100202101201100100100102,
|
|
100201201200102102101100,
|
|
200200200202100200100100,
|
|
100200100100200202100202,
|
|
100102100102102101200101,
|
|
111201201202100000000000,
|
|
#GOGOSTART
|
|
400202100202100202101101,
|
|
100200100201000200100200,
|
|
200202102101200201100202,
|
|
100202100202101200100201,
|
|
200201001001000100100202,
|
|
200202002001202101101200,
|
|
200102102002100202100200,
|
|
100202101200202102100100,
|
|
211211211211
|
|
#GOGOEND
|
|
200000200000,
|
|
#GOGOSTART
|
|
400100200002222202100100,
|
|
101201001201200222111222,
|
|
102201201100100201101202,
|
|
100200100200101001001002,
|
|
001101100202100202102102,
|
|
002102101101200102102100,
|
|
202111200102101201201202,
|
|
20120120120020220220220
|
|
#GOGOEND
|
|
2,
|
|
000000000000000000202202,
|
|
100001000000200001002202,
|
|
200200200201000200200200,
|
|
200001000000200002001200,
|
|
11121011,
|
|
400101001001000100100100,
|
|
200202002002000000100100,
|
|
22222222,
|
|
101202101201222111202202,
|
|
200000
|
|
#GOGOSTART
|
|
400202100202101101,
|
|
100200100202100200100200,
|
|
200202102101100201100202,
|
|
100202100101101200111111,
|
|
200202002001001100100202,
|
|
200202102001202101100100,
|
|
100102102002100202100200,
|
|
100202101201202102100100,
|
|
211211211211
|
|
#GOGOEND
|
|
200000000000,
|
|
#GOGOSTART
|
|
400002211111201001201001,
|
|
201001201201200100100100,
|
|
200102101200200100201100,
|
|
200101200200202100221111,
|
|
200101200202100202100100,
|
|
200202101111200202101100,
|
|
100201102002100200201200,
|
|
200202102101201111100100,
|
|
21121121111
|
|
#GOGOEND
|
|
2000000000000,
|
|
,
|
|
000
|
|
3,
|
|
#GOGOSTART
|
|
#SCROLL 1.3
|
|
201100200101200101100200,
|
|
201100200101200101100200,
|
|
201100200101200100101200,
|
|
200101200101200102100211,
|
|
200010200000100100100000200000200200100100100100,
|
|
100100200000100100200000100000200000200020100000,
|
|
1111222222221120,
|
|
200100100200200200200000201010201010200010200000,
|
|
#GOGOEND
|
|
#SCROLL 1
|
|
201201201211101201201201,
|
|
2,
|
|
#END
|