generated from DragonRatTiger/Custom-Charts
499 lines
4.4 KiB
Plaintext
499 lines
4.4 KiB
Plaintext
TITLE:Lagtrain
|
|
SUBTITLE:--inabakumori feat. Yuki Kaai
|
|
TITLEJA:ラグトレイン
|
|
SUBTITLEJA:稲葉曇 feat. 歌愛ユキ
|
|
BGMOVIE:Lagtrain.mp4
|
|
PREIMAGE:Lagtrain.jpg
|
|
BPM:147
|
|
OFFSET:-3.264
|
|
DEMOSTART:112.651
|
|
WAVE:Lagtrain.ogg
|
|
MAKER:Colin
|
|
|
|
COURSE:Oni
|
|
LEVEL:7
|
|
BALLOON:5
|
|
SCOREINIT:
|
|
SCOREDIFF:
|
|
NOTESDESIGNER3:Colin
|
|
|
|
#START
|
|
#BARLINEOFF
|
|
0000000000000012,
|
|
#BARLINEON
|
|
11211121,
|
|
12210120,
|
|
11211121,
|
|
11210120,
|
|
11212121,
|
|
11212122,
|
|
11212121,
|
|
11210120,
|
|
11212121,
|
|
11211121,
|
|
11211121,
|
|
11000000,
|
|
#GOGOSTART
|
|
12121212,
|
|
1120102010201020,
|
|
1022102011201020,
|
|
1020102010404022,
|
|
1020102011201020,
|
|
1120102010201020,
|
|
1120102010201022,
|
|
101022101010
|
|
#GOGOEND
|
|
2000,
|
|
#GOGOSTART
|
|
1010201011201020,
|
|
1120102010201020,
|
|
1120102011201022,
|
|
102010201022
|
|
#GOGOEND
|
|
1000,
|
|
1022112011221022,
|
|
1121201110102022,
|
|
1120102011201020,
|
|
1120102010201020,
|
|
1122102211201022,
|
|
1121201012121022,
|
|
1020112010221020,
|
|
0011101020121010,
|
|
12121212,
|
|
1020102010221020,
|
|
1020122010201020,
|
|
1020102010221020,
|
|
12121212,
|
|
1020102010221020,
|
|
12121211,
|
|
0010221000202000,
|
|
33112121,
|
|
1010201020303011,
|
|
#GOGOSTART
|
|
1020102011201020,
|
|
1120102010404020,
|
|
1020102011201020,
|
|
1120102010201020,
|
|
1120102011201022,
|
|
#GOGOEND
|
|
10101122,
|
|
#GOGOSTART
|
|
12121212,
|
|
1120102010201020,
|
|
1020102011201020,
|
|
1020102010404022,
|
|
1020102011201020,
|
|
12121212,
|
|
1020102010201022,
|
|
1010221010102010,
|
|
#GOGOEND
|
|
11221212,
|
|
1020102011201020,
|
|
1120102011201020,
|
|
1120102010404010,
|
|
1110102010201020,
|
|
1020102011201020,
|
|
1020102011201022,
|
|
1021201110404010,
|
|
#MEASURE 8/4
|
|
00,
|
|
#MEASURE 4/4
|
|
#GOGOSTART
|
|
#SCROLL 1.3
|
|
1020112010201020,
|
|
1120102010201020,
|
|
1020102011201020,
|
|
1120102010404022,
|
|
12121212,
|
|
1120102010201020,
|
|
1020102010201012,
|
|
1022102210221020,
|
|
#GOGOEND
|
|
7000
|
|
#GOGOSTART
|
|
802011201020,
|
|
1120102011201020,
|
|
12121212,
|
|
1120102010404022,
|
|
1020102011201020,
|
|
1120102010201020,
|
|
12121212,
|
|
1010221010102010,
|
|
#GOGOEND
|
|
#SCROLL 1
|
|
20202021,
|
|
1020001010121022,
|
|
10102021,
|
|
1010002010212012,
|
|
1020102010201022,
|
|
1020102010221020,
|
|
12112112,
|
|
#END
|
|
|
|
|
|
COURSE:Hard
|
|
LEVEL:4
|
|
BALLOON:
|
|
SCOREINIT:
|
|
SCOREDIFF:
|
|
NOTESDESIGNER2:Colin
|
|
|
|
#START
|
|
#BARLINEOFF
|
|
0000000000000022,
|
|
#BARLINEON
|
|
21201021,
|
|
02000120,
|
|
20102021,
|
|
01201120,
|
|
10222022,
|
|
20222012,
|
|
10105082,
|
|
11210110,
|
|
10222022,
|
|
20222022,
|
|
01101101,
|
|
1100,
|
|
#GOGOSTART
|
|
10112011,
|
|
20111012,
|
|
10202012,
|
|
01120120,
|
|
20112012,
|
|
10222022,
|
|
02101101,
|
|
112110
|
|
#GOGOEND
|
|
20,
|
|
#GOGOSTART
|
|
10201021,
|
|
02011212,
|
|
10201021,
|
|
02121212,
|
|
10111000,
|
|
00011111,
|
|
10202121,
|
|
120100
|
|
#GOGOEND
|
|
20,
|
|
11112000,
|
|
00011122,
|
|
10210121,
|
|
0011101010222020,
|
|
1111,
|
|
1111,
|
|
1000111010001000,
|
|
1111,
|
|
1111,
|
|
1111,
|
|
10101012,
|
|
02020440,
|
|
10222022,
|
|
20222012,
|
|
#GOGOSTART
|
|
10105082,
|
|
11210110,
|
|
10222022,
|
|
20222022,
|
|
01101101,
|
|
#GOGOEND
|
|
10101110,
|
|
#GOGOSTART
|
|
10121012,
|
|
10121012,
|
|
10102012,
|
|
02220222,
|
|
10121012,
|
|
10222011,
|
|
01202202,
|
|
12121010,
|
|
#GOGOEND
|
|
11201011,
|
|
10111011,
|
|
12222022,
|
|
02220220,
|
|
1110200010001010,
|
|
10222011,
|
|
1020202020002022,
|
|
2011101110404000,
|
|
#MEASURE 8/4
|
|
00,
|
|
#MEASURE 4/4
|
|
#GOGOSTART
|
|
10222022,
|
|
20222012,
|
|
10105082,
|
|
11210110,
|
|
10222022,
|
|
20222022,
|
|
01101101,
|
|
12121212,
|
|
#GOGOEND
|
|
10
|
|
#GOGOSTART
|
|
222022,
|
|
20222012,
|
|
10102022,
|
|
11210110,
|
|
10222022,
|
|
20222022,
|
|
01101101,
|
|
11111012,
|
|
#GOGOEND
|
|
10202022,
|
|
0020002020222020,
|
|
10102021,
|
|
0010001010201011,
|
|
10101021,
|
|
02021212,
|
|
10101011,
|
|
#END
|
|
|
|
|
|
COURSE:Normal
|
|
LEVEL:2
|
|
BALLOON:
|
|
SCOREINIT:
|
|
SCOREDIFF:
|
|
NOTESDESIGNER1:Colin
|
|
|
|
|
|
#START
|
|
#BARLINEOFF
|
|
0,
|
|
#BARLINEON
|
|
1110,
|
|
1110,
|
|
1110,
|
|
1110,
|
|
2020,
|
|
2020,
|
|
2020,
|
|
2020,
|
|
1010,
|
|
1010,
|
|
1010,
|
|
1,
|
|
#GOGOSTART
|
|
1211,
|
|
0210,
|
|
1211,
|
|
0210,
|
|
1211,
|
|
0210,
|
|
1211,
|
|
000
|
|
#GOGOEND
|
|
0,
|
|
#GOGOSTART
|
|
2010,
|
|
2012,
|
|
1020,
|
|
101
|
|
#GOGOEND
|
|
0,
|
|
1020,
|
|
1210,
|
|
1020,
|
|
1020,
|
|
1210,
|
|
2010,
|
|
2220,
|
|
,
|
|
1010,
|
|
1010,
|
|
1010,
|
|
1010,
|
|
1110,
|
|
1110,
|
|
1110,
|
|
,
|
|
1,
|
|
,
|
|
#GOGOSTART
|
|
1110,
|
|
1210,
|
|
1210,
|
|
1210,
|
|
1010,
|
|
#GOGOEND
|
|
1111,
|
|
#GOGOSTART
|
|
1210,
|
|
1210,
|
|
1210,
|
|
1210,
|
|
1210,
|
|
1210,
|
|
1210,
|
|
1010,
|
|
#GOGOEND
|
|
1,
|
|
2,
|
|
1,
|
|
2,
|
|
1,
|
|
2,
|
|
1,
|
|
1,
|
|
#MEASURE 8/4
|
|
00,
|
|
#MEASURE 4/4
|
|
#GOGOSTART
|
|
1110,
|
|
1110,
|
|
1210,
|
|
1210,
|
|
2120,
|
|
2120,
|
|
1110,
|
|
1010,
|
|
#GOGOEND
|
|
2
|
|
#GOGOSTART
|
|
220,
|
|
2220,
|
|
2120,
|
|
2120,
|
|
2220,
|
|
2220,
|
|
0220,
|
|
2202,
|
|
#GOGOEND
|
|
2010,
|
|
1010,
|
|
1110,
|
|
1010,
|
|
1111,
|
|
1111,
|
|
1111,
|
|
#END
|
|
|
|
|
|
COURSE:Easy
|
|
LEVEL:1
|
|
BALLOON:
|
|
SCOREINIT:
|
|
SCOREDIFF:
|
|
NOTESDESIGNER0:Colin
|
|
|
|
|
|
#START
|
|
#BARLINEOFF
|
|
0,
|
|
#BARLINEON
|
|
1010,
|
|
1,
|
|
1010,
|
|
1,
|
|
2020,
|
|
2,
|
|
2020,
|
|
2,
|
|
1010,
|
|
1,
|
|
1010,
|
|
1,
|
|
#GOGOSTART
|
|
1,
|
|
1,
|
|
1,
|
|
1,
|
|
1,
|
|
1,
|
|
1,
|
|
000
|
|
#GOGOEND
|
|
0,
|
|
#GOGOSTART
|
|
2010,
|
|
2010,
|
|
1020,
|
|
000
|
|
#GOGOEND
|
|
0,
|
|
1020,
|
|
1,
|
|
1020,
|
|
1,
|
|
1010,
|
|
2,
|
|
2,
|
|
,
|
|
1010,
|
|
1,
|
|
1010,
|
|
1,
|
|
1010,
|
|
1,
|
|
1010,
|
|
1,
|
|
1,
|
|
,
|
|
#GOGOSTART
|
|
1010,
|
|
1,
|
|
1,
|
|
1,
|
|
1,
|
|
#GOGOEND
|
|
1010,
|
|
#GOGOSTART
|
|
1,
|
|
1010,
|
|
1,
|
|
1010,
|
|
1,
|
|
1010,
|
|
1,
|
|
1010,
|
|
#GOGOEND
|
|
1,
|
|
2,
|
|
1,
|
|
2,
|
|
1,
|
|
2,
|
|
1,
|
|
1,
|
|
#MEASURE 8/4
|
|
00,
|
|
#MEASURE 4/4
|
|
#GOGOSTART
|
|
1010,
|
|
1,
|
|
1010,
|
|
1,
|
|
2020,
|
|
2,
|
|
1010,
|
|
1,
|
|
#GOGOEND
|
|
2
|
|
#GOGOSTART
|
|
020,
|
|
2,
|
|
2020,
|
|
2,
|
|
2020,
|
|
2,
|
|
2020,
|
|
2020,
|
|
#GOGOEND
|
|
2010,
|
|
1010,
|
|
1010,
|
|
1010,
|
|
1111,
|
|
1111,
|
|
1111,
|
|
#END
|
|
|
|
|
|
|
|
|
|
|
|
|
|
|
|
|