Files
2025-12-20 15:52:49 -05:00

466 lines
4.1 KiB
Plaintext

TITLE:METEOR
SUBTITLE:--DIVELA feat. Miku Hatsune
TITLEJA:METEOR
SUBTITLEJA:DIVELA feat. 初音ミク
PREIMAGE:METEOR.png
WAVE:METEOR.ogg
BPM:170
OFFSET:-0.029
DEMOSTART:45.734
MAKER:Colin
COURSE:Easy
LEVEL:2
SCOREINIT:
SCOREDIFF:
NOTESDESIGNER0:Colin
#START
,
#GOGOSTART
1010,
1110,
1010,
1110,
2020,
2220,
2020,
2220,
#GOGOEND
1,
1,
1,
1,
2,
2,
2,
2,
1010,
1,
1010,
1,
1010,
1,
1010,
1,
2,
2,
2,
2,
2,
2,
,
,
#GOGOSTART
3010,
1,
2020,
2,
1010,
1,
2020,
2,
3010,
1,
2020,
2,
1010,
1,
2020,
2,
#GOGOEND
1,
,
1,
1,
1,
1,
1,
,
1,
1010,
1,
1010,
1,
1010,
1,
1,
5,
8,
,
,
2,
2,
2,
2,
1,
,
,
,
#GOGOSTART
3010,
1,
2020,
2,
1010,
1,
2020,
20000600,
#GOGOEND
0,
0008,
#GOGOSTART
3010,
1110,
2020,
2220,
1010,
1110,
2020,
200020002000200
#GOGOEND
0,
#END
COURSE:Normal
LEVEL:3
SCOREINIT:
SCOREDIFF:
NOTESDESIGNER1:Colin
#START
,
#GOGOSTART
10001011,
1110,
10001011,
1110,
20002022,
2220,
20002022,
2220,
#GOGOEND
1,
1010,
1,
1,
2020,
2,
2020,
2,
1010,
10111000,
1010,
10111000,
1010,
1,
1010,
1110,
2,
2020,
2,
2020,
2,
2020,
2,
,
#GOGOSTART
30001011,
1110,
20002022,
2220,
10011000,
10011000,
2022,
2,
30001011,
1010,
2220,
2,
10111000,
10111000,
2020,
2220,
#GOGOEND
1,
,
1,
1010,
1,
1,
1,
1,
1010,
10111000,
1010,
10111000,
1010,
1110,
1010,
1011,
5,
8,
,
,
20022000,
2020,
20022000,
2,
1,
,
,
2222,
#GOGOSTART
3110,
10111000,
20222020,
2020,
10111000,
10001011,
2022,
20222600,
#GOGOEND
0,
0008,
#GOGOSTART
3110,
10111000,
2220,
20222000,
1110,
10111000,
2220,
200020202000200
#GOGOEND
0,
#END
COURSE:Hard
LEVEL:4
SCOREINIT:
SCOREDIFF:
NOTESDESIGNER2:Colin
#START
11202022,
#GOGOSTART
1010200100202010,
1010200100202010,
1010200100202010,
1010200100222020,
1010200100202010,
1010200100202010,
1010200100202010,
1010200100202010,
#GOGOEND
20102221,
01120001,
10220221,
02220002,
10202022,
02220002,
10220112,
,
10201120,
10201120,
10201120,
10210122,
10201120,
10201120,
10201120,
1020200020020020,
10112020,
1120,
10112020,
10102022,
10112020,
1120,
1,
0000001010222010,
#GOGOSTART
30221011,
0000002020022020,
10220211,
12012021,
00011021,
00020122,
20220202,
02011022,
10221011,
0000002020022020,
10220211,
12012012,
00011012,
01210121,
01210225,
00000008,
#GOGOEND
1,
1,
1,
1,
1,
1,
1,
1,
1111,
1010,
1111,
1010,
1111,
1010,
1111,
10001025,
,
0800,
10112020,
10112020,
10112020,
10112020,
10112020,
1010,
3,
,
,
11202121,
#GOGOSTART
30221011,
0000002020022020,
10220211,
12012021,
00011021,
02220122,
02220221,
02210215,
#GOGOEND
0,
00000008,
#GOGOSTART
1010200100202010,
1010200100202010,
1010200100202010,
1010200100222020,
1010200100202010,
1010200100202010,
1010200100202010,
101020010020201
#GOGOEND
0,
#END
COURSE:Oni
LEVEL:8
SCOREINIT:
SCOREDIFF:
NOTESDESIGNER3:Colin
#START
1010200022012022,
#GOGOSTART
1010202101201020,
1010202101212020,
1010202101201020,
1010202101212220,
3010202101201020,
1010202101212020,
1010202101201020,
1010202101212222,
#GOGOEND
20102221,
01120001,
10220221,
01220002,
10202122,
02220002,
10220222,
10101012,
1010201210102022,
1010220110102011,
1010201210102022,
1010220110102011,
1010201210102022,
1010220110102011,
1010201210102022,
1020201022012010,
10012010,
10112022,
10112010,
10112022,
10012010,
10112011,
,
1010201022012012,
#GOGOSTART
1010201110112010,
1010201210102022,
1010201210102012,
1010201110112010,
1010201210112010,
1010201110102022,
1010201110102010,
1010201022221022,
1010201110112010,
1010201210102022,
1010201210102012,
1010201110112010,
2011201020112010,
2011201020112020,
1010201210102022,
1010201122012022,
#GOGOEND
20121122,
11112102,
22222111,
20120101,
20211111,
22022202,
10210225,
00000081,
11122212,
11221102,
22211212,
2010202022012020,
12122221,
11212202,
1010201020112010,
2012101211112222,
1021,
10112022,
10112020,
10112022,
10112020,
11112022,
10112020,
10012011,
0000001010022010,
00020222,
20120201,
1010201022012012,
#GOGOSTART
1010201110112010,
1010201210102022,
1010201210102012,
1010201022221022,
1010201110102010,
2011201020112010,
2011201020112010,
2211222211112222,
#GOGOEND
1,
000000000000
#SCROLL 2
4
#SCROLL 1
000,
#GOGOSTART
3010202101201020,
1010202101212020,
1010202101201020,
1010202101212220,
3010202101201020,
1010202101212020,
1010202101201020,
101020210121222
#GOGOEND
0,
#END