generated from DragonRatTiger/Custom-Charts
649 lines
5.4 KiB
Plaintext
649 lines
5.4 KiB
Plaintext
TITLE:Machine-Gun Queen
|
|
SUBTITLE:--Maiki-P feat. Teto Kasane
|
|
TITLEJA:マシンガンクイーン
|
|
SUBTITLEJA:マイキP feat. 重音テト
|
|
PREIMAGE:Machine-Gun Queen.png
|
|
BGMOVIE:Machine-Gun Queen.mp4
|
|
WAVE:Machine-Gun Queen.ogg
|
|
BPM:220
|
|
OFFSET:-1.365
|
|
DEMOSTART:56.455
|
|
GENRE:ボーカロイド
|
|
MAKER:Colin
|
|
|
|
COURSE:Easy
|
|
LEVEL:3
|
|
NOTESDESIGNER0:Colin
|
|
|
|
#START
|
|
,
|
|
3,
|
|
0300,
|
|
3,
|
|
,
|
|
3,
|
|
0300,
|
|
3,
|
|
3,
|
|
#GOGOSTART
|
|
31,
|
|
1,
|
|
1011,
|
|
1,
|
|
#GOGOEND
|
|
20
|
|
#GOGOSTART
|
|
#SCROLL 2
|
|
0
|
|
#SCROLL 1
|
|
02000,
|
|
2,
|
|
2022,
|
|
200
|
|
#GOGOEND
|
|
0,
|
|
2,
|
|
,
|
|
2,
|
|
,
|
|
2,
|
|
2,
|
|
2,
|
|
,
|
|
3,
|
|
1,
|
|
11,
|
|
1,
|
|
1,
|
|
1,
|
|
11,
|
|
1,
|
|
2,
|
|
,
|
|
,
|
|
00
|
|
#SCROLL 4.54091
|
|
608608,
|
|
#SCROLL 1
|
|
0,
|
|
,
|
|
,
|
|
,
|
|
31,
|
|
1110,
|
|
11,
|
|
1,
|
|
1001,
|
|
00001001,
|
|
,
|
|
,
|
|
,
|
|
,
|
|
#GOGOSTART
|
|
31,
|
|
11,
|
|
1111,
|
|
1,
|
|
11,
|
|
1,
|
|
1,
|
|
,
|
|
22,
|
|
2,
|
|
2022,
|
|
200
|
|
#GOGOEND
|
|
0,
|
|
#GOGOSTART
|
|
22,
|
|
2,
|
|
2222,
|
|
2,
|
|
22,
|
|
2,
|
|
2,
|
|
,
|
|
11,
|
|
1,
|
|
1011,
|
|
1,
|
|
11,
|
|
11,
|
|
1,
|
|
3,
|
|
#GOGOEND
|
|
2,
|
|
2,
|
|
2,
|
|
,
|
|
2,
|
|
2,
|
|
2,
|
|
,
|
|
2,
|
|
,
|
|
2,
|
|
,
|
|
22,
|
|
22,
|
|
2,
|
|
,
|
|
#GOGOSTART
|
|
31,
|
|
11,
|
|
1111,
|
|
1,
|
|
11,
|
|
1,
|
|
1,
|
|
,
|
|
22,
|
|
2,
|
|
2022,
|
|
2,
|
|
22,
|
|
2,
|
|
2222,
|
|
2,
|
|
#GOGOEND
|
|
0,
|
|
#GOGOSTART
|
|
3,
|
|
1,
|
|
11,
|
|
1,
|
|
1,
|
|
1,
|
|
11,
|
|
1,
|
|
2,
|
|
2,
|
|
22,
|
|
2,
|
|
2,
|
|
2,
|
|
22,
|
|
2,
|
|
#GOGOEND
|
|
0,
|
|
#END
|
|
|
|
COURSE:Normal
|
|
LEVEL:5
|
|
NOTESDESIGNER1:Colin
|
|
|
|
#START
|
|
,
|
|
3,
|
|
0300,
|
|
3,
|
|
00300300,
|
|
3,
|
|
0300,
|
|
3,
|
|
3,
|
|
#GOGOSTART
|
|
31,
|
|
10101011,
|
|
1011,
|
|
1,
|
|
#GOGOEND
|
|
20
|
|
#GOGOSTART
|
|
#SCROLL 2
|
|
0
|
|
#SCROLL 1
|
|
02020,
|
|
20002022,
|
|
2022,
|
|
200
|
|
#GOGOEND
|
|
0,
|
|
2,
|
|
2220,
|
|
2,
|
|
2220,
|
|
2,
|
|
2220,
|
|
2,
|
|
2,
|
|
31,
|
|
1110,
|
|
10001011,
|
|
1,
|
|
11,
|
|
1110,
|
|
11,
|
|
1,
|
|
22,
|
|
2,
|
|
02,
|
|
20
|
|
#SCROLL 4.54091
|
|
608608,
|
|
#SCROLL 1
|
|
22,
|
|
2,
|
|
22,
|
|
,
|
|
30110010,
|
|
1110,
|
|
10110010,
|
|
1,
|
|
10010010,
|
|
01001001,
|
|
,
|
|
00002002,
|
|
,
|
|
,
|
|
#GOGOSTART
|
|
3111,
|
|
11,
|
|
10101110,
|
|
1,
|
|
1111,
|
|
11,
|
|
1,
|
|
,
|
|
20020202,
|
|
,
|
|
20020202,
|
|
000
|
|
#GOGOEND
|
|
0,
|
|
#GOGOSTART
|
|
2222,
|
|
22,
|
|
20202220,
|
|
2,
|
|
2222,
|
|
22,
|
|
2,
|
|
,
|
|
10010101,
|
|
,
|
|
10010101,
|
|
,
|
|
11,
|
|
11,
|
|
1,
|
|
3,
|
|
#GOGOEND
|
|
2,
|
|
2,
|
|
2,
|
|
,
|
|
2,
|
|
2,
|
|
2,
|
|
,
|
|
2,
|
|
,
|
|
2,
|
|
,
|
|
22,
|
|
22,
|
|
2,
|
|
,
|
|
#GOGOSTART
|
|
31,
|
|
11,
|
|
1111,
|
|
1,
|
|
1111,
|
|
11,
|
|
1,
|
|
,
|
|
20020202,
|
|
,
|
|
20020202,
|
|
,
|
|
2222,
|
|
2022,
|
|
20202220,
|
|
2,
|
|
#GOGOEND
|
|
0,
|
|
#GOGOSTART
|
|
31,
|
|
1110,
|
|
1111,
|
|
1,
|
|
11,
|
|
1110,
|
|
1111,
|
|
1,
|
|
22,
|
|
2220,
|
|
2222,
|
|
22,
|
|
22,
|
|
2220,
|
|
2022,
|
|
22,
|
|
#GOGOEND
|
|
0,
|
|
#END
|
|
|
|
COURSE:Hard
|
|
LEVEL:8
|
|
NOTESDESIGNER2:Colin
|
|
|
|
#START
|
|
,
|
|
3,
|
|
00300300,
|
|
3,
|
|
00300300,
|
|
3,
|
|
00300300,
|
|
3,
|
|
4400,
|
|
#GOGOSTART
|
|
30210120,
|
|
1000201110102000,
|
|
10211120,
|
|
1010201110102020,
|
|
#GOGOEND
|
|
0000
|
|
#GOGOSTART
|
|
#SCROLL 1.5
|
|
30
|
|
#SCROLL 1
|
|
0010102011,
|
|
11201120,
|
|
1010201110102000,
|
|
444
|
|
#GOGOEND
|
|
0,
|
|
3202,
|
|
0202,
|
|
0202,
|
|
0202,
|
|
0202,
|
|
0202,
|
|
0202,
|
|
3300,
|
|
30210120,
|
|
1010200011102000,
|
|
10210121,
|
|
30301120,
|
|
30201120,
|
|
11201122,
|
|
10201120,
|
|
21212120,
|
|
30012000,
|
|
10102100,
|
|
10012020,
|
|
20
|
|
#SCROLL 4.54091
|
|
608608,
|
|
#SCROLL 1
|
|
30012000,
|
|
10102100,
|
|
10012020,
|
|
3333,
|
|
3000201110102000,
|
|
10210122,
|
|
1000201000102011,
|
|
11201120,
|
|
30330330,
|
|
33033033,
|
|
01212121,
|
|
21212123,
|
|
03000003,
|
|
03300000,
|
|
#GOGOSTART
|
|
30201120,
|
|
1000201110102010,
|
|
3434,
|
|
3000000010102011,
|
|
10201120,
|
|
10201122,
|
|
3434,
|
|
3000201020102220,
|
|
10210121,
|
|
0010201110102000,
|
|
11201120,
|
|
202220002022
|
|
#GOGOEND
|
|
2020,
|
|
#GOGOSTART
|
|
30201120,
|
|
1000201110102020,
|
|
3434,
|
|
30001120,
|
|
30201121,
|
|
0010201110102000,
|
|
3434,
|
|
3000201020102220,
|
|
10210121,
|
|
0010201110102000,
|
|
1000201110102000,
|
|
11221122,
|
|
10212021,
|
|
20212021,
|
|
21212121,
|
|
3333,
|
|
#GOGOEND
|
|
3,
|
|
,
|
|
,
|
|
,
|
|
2,
|
|
2,
|
|
2,
|
|
,
|
|
20020202,
|
|
,
|
|
20020202,
|
|
,
|
|
2222,
|
|
2222,
|
|
22,
|
|
3300,
|
|
#GOGOSTART
|
|
30201120,
|
|
1000201110102010,
|
|
3434,
|
|
3000000010102011,
|
|
10201120,
|
|
10201122,
|
|
3434,
|
|
3000201020102220,
|
|
10210121,
|
|
0010201110102000,
|
|
11201120,
|
|
1010201110102000,
|
|
1000202220102000,
|
|
11221120,
|
|
21212121,
|
|
21212121,
|
|
#GOGOEND
|
|
3,
|
|
#GOGOSTART
|
|
30021020,
|
|
10201100,
|
|
30021020,
|
|
10201111,
|
|
30021020,
|
|
10201102,
|
|
30021020,
|
|
10201100,
|
|
31222000,
|
|
12222000,
|
|
12122120,
|
|
12222000,
|
|
12222000,
|
|
12222000,
|
|
12122120,
|
|
12222000,
|
|
#GOGOEND
|
|
3,
|
|
#END
|
|
|
|
COURSE:Oni
|
|
LEVEL:10
|
|
NOTESDESIGNER3:Colin
|
|
|
|
#START
|
|
,
|
|
3000201110102000,
|
|
1000201110102000,
|
|
1010201110102020,
|
|
1010201110102022,
|
|
1022201120212010,
|
|
1011201020112010,
|
|
1021201120102010,
|
|
1222122200000000,
|
|
#GOGOSTART
|
|
#SCROLL 1.5
|
|
30
|
|
#SCROLL 1
|
|
00201210102011,
|
|
1010201212102011,
|
|
1010201211102012,
|
|
1010202120102010,
|
|
#GOGOEND
|
|
0000
|
|
#GOGOSTART
|
|
#SCROLL 2
|
|
30
|
|
#SCROLL 1
|
|
0010102012,
|
|
1010201212102011,
|
|
1010201210102011,
|
|
201020111111
|
|
#GOGOEND
|
|
2000,
|
|
30200120,
|
|
10210121,
|
|
10210120,
|
|
10201120,
|
|
1000201000102011,
|
|
10201120,
|
|
10221122,
|
|
3000300000112010,
|
|
3000201110102020,
|
|
1010202210102020,
|
|
1011201110112020,
|
|
40304032,
|
|
3000201110102012,
|
|
1010201211102020,
|
|
1011202011112010,
|
|
41414120,
|
|
30012000,
|
|
00102100,
|
|
10012000,
|
|
00
|
|
#SCROLL 4.54091
|
|
608608,
|
|
#SCROLL 1
|
|
30012000,
|
|
00102100,
|
|
10012000,
|
|
3333,
|
|
3000201211102000,
|
|
1010201110102012,
|
|
1000201110102022,
|
|
1010202120112020,
|
|
3022203022203022,
|
|
2030222030222030,
|
|
0011201020112010,
|
|
2011201020112030,
|
|
03000003,
|
|
03300000,
|
|
#GOGOSTART
|
|
#SCROLL 1.5
|
|
30
|
|
#SCROLL 1
|
|
00201110102012,
|
|
1010201212102000,
|
|
3434,
|
|
3000201110122020,
|
|
1011202011112012,
|
|
1010201211102010,
|
|
3434,
|
|
3000201122112222,
|
|
1011201210102011,
|
|
1010202120112020,
|
|
3011202210102010,
|
|
221122112211
|
|
#GOGOEND
|
|
2222,
|
|
#GOGOSTART
|
|
1000201120102020,
|
|
1011201211102010,
|
|
3434,
|
|
3000201020112022,
|
|
1010201110212020,
|
|
1011202010112020,
|
|
3434,
|
|
3010201122112020,
|
|
3022203011112022,
|
|
0210201220112020,
|
|
3022203011112022,
|
|
0210201220112021,
|
|
1011202211012020,
|
|
1011201211102011,
|
|
2010201120102011,
|
|
2011221120202020,
|
|
#GOGOEND
|
|
2001,
|
|
22,
|
|
1212,
|
|
2012,
|
|
2211,
|
|
22,
|
|
1221,
|
|
200122,
|
|
10012012,
|
|
1020002010002022,
|
|
10112012,
|
|
1020101020111020,
|
|
10112012,
|
|
1020201020100022,
|
|
10112122,
|
|
3300,
|
|
#GOGOSTART
|
|
#SCROLL 1.5
|
|
30
|
|
#SCROLL 1
|
|
00201110102012,
|
|
1010201212102000,
|
|
3434,
|
|
3000201110122020,
|
|
1011202011112012,
|
|
1010201211102010,
|
|
3434,
|
|
3000201122112222,
|
|
1022203011112022,
|
|
0210201220112020,
|
|
3022203011112022,
|
|
0210201220112021,
|
|
1011202211012020,
|
|
1011201211102011,
|
|
2010201120102011,
|
|
2011221120112010,
|
|
#GOGOEND
|
|
3,
|
|
#GOGOSTART
|
|
3000002010112010,
|
|
2000202010112020,
|
|
1011102010102022,
|
|
1012201212122222,
|
|
1000002110102010,
|
|
1000200010212020,
|
|
1000102010222020,
|
|
1111222211112222,
|
|
1000002010112010,
|
|
2000202010112020,
|
|
1011102010102022,
|
|
1012201212122222,
|
|
1000002110102010,
|
|
1000200010212020,
|
|
1000102010222020,
|
|
1111222211112222,
|
|
#GOGOEND
|
|
1,
|
|
#END |