Files
2025-12-20 15:52:49 -05:00

379 lines
4.2 KiB
Plaintext

TITLE:Monitoring
SUBTITLE:--DECO*27 feat. Miku Hatsune
TITLEJA:モニタリング
SUBTITLEJA:DECO*27 feat. 初音ミク
PREIMAGE:Monitoring.png
BGMOVIE:Monitoring.mp4
WAVE:Monitoring.ogg
BPM:132
OFFSET:-1.111
DEMOSTART:40.429
GENRE:ボーカロイド
MAKER:Colin
COURSE:Easy
LEVEL:2
SCOREINIT:
SCOREDIFF:
NOTESDESIGNER0:Colin
#START
#MEASURE 8/4
00,
#MEASURE 4/4
2020,
2,
2020,
2,
1010,
1,
1010,
1,
#GOGOSTART
2020,
2,
2020,
2,
#GOGOEND
1010,
1110,
1010,
1,
2020,
2220,
2,
00000600,
#GOGOSTART
8220,
2220,
1110,
1110,
1010,
1,
2020,
2000000
#GOGOEND
000600000,
#GOGOSTART
8220,
2220,
1110,
1110,
1010,
1,
2020,
2000000
#GOGOEND
000000000,
1010,
1110,
1010,
5080,
2020,
2220,
2020,
5008,
5008,
00000600,
#GOGOSTART
8220,
2220,
1110,
1110,
1010,
1,
2020,
2000000
#GOGOEND
000000000,
#GOGOSTART
2020,
2,
2020,
2,
1010,
1,
1010,
1000000
#GOGOEND
300000000,
#END
COURSE:Normal
LEVEL:3
SCOREINIT:
SCOREDIFF:
NOTESDESIGNER1:Colin
#START
#MEASURE 8/4
00,
#MEASURE 4/4
2020,
2220,
2020,
2,
1010,
1110,
1010,
1,
#GOGOSTART
2022,
2,
2022,
2,
#GOGOEND
1011,
10111000,
1110,
1110,
20022000,
20222000,
2020,
00000600,
#GOGOSTART
8220,
20222000,
1110,
10111000,
1010,
1,
2220,
2000000
#GOGOEND
000600000,
#GOGOSTART
8220,
20222000,
1110,
10111000,
1110,
10111000,
2220,
2000000
#GOGOEND
000000000,
1011,
10111000,
1011,
5080,
2022,
20222000,
2020,
5008,
5008,
00000600,
#GOGOSTART
8220,
20222000,
1110,
10111000,
1110,
1,
2220,
2000200
#GOGOEND
000000000,
#GOGOSTART
2220,
20202220,
2220,
2,
10111010,
1010,
10111010,
1000000
#GOGOEND
300000000,
#END
COURSE:Hard
LEVEL:5
SCOREINIT:
SCOREDIFF:
NOTESDESIGNER2:Colin
#START
#MEASURE 8/4
00,
#MEASURE 4/4
1000001010010010,
,
1000001010010010,
,
1000001010010010,
,
1000001010010010,
,
#GOGOSTART
1010200020020010,
02000000,
0010200010020010,
02021020,
#GOGOEND
1000200100102010,
2200200200102010,
0020201010020010,
2022202200101020,
1001020100102020,
1002010200102010,
1000102010010010,
00000600,
#GOGOSTART
8010202220010020,
0010001020020020,
1000200010020010,
0020001020020020,
0002222200022222,
0010200100001020,
1001002010010010,
3030301
#GOGOEND
100600000,
#GOGOSTART
8010202220010020,
0010001020020020,
1000200010020010,
0020001020020020,
0002222200022222,
0010200100001020,
1001002010010010,
3030301
#GOGOEND
100004000,
3020202020020020,
2005000000008000,
1000102010010010,
50000082,
2000202020020020,
2002002000102010,
2002002020020020,
6008,
6,
80000600,
#GOGOSTART
8010202220010020,
0010001020020020,
1000200010020010,
0020001020020020,
0002222200022222,
0010200100001020,
1001002010010010,
3030301
#GOGOEND
100000000,
#GOGOSTART
1000201100102010,
1010200200102010,
0110110010020010,
2010200200102010,
1002010201101010,
1002010202222020,
1000102010010010,
3030301
#GOGOEND
100000000,
#END
COURSE:Oni
LEVEL:8
SCOREINIT:
SCOREDIFF:
NOTESDESIGNER3:Colin
#START
#MEASURE 8/4
00000000000000000000000000202220,
#MEASURE 4/4
200020110122011
#SCROLL 75.75
5,
#SCROLL 1
0080201100202110,
0210220101220121,
2211201200102120,
1000202101221020,
1000202100202110,
0110210210220202,
2112111200000000,
#GOGOSTART
3011201020120110,
1020102011012102,
1011201020120110,
1020102011202220,
#GOGOEND
2000201101220112,
2201201100202110,
0210220110120121,
2211201202211122,
1021010101202020,
1012010102222010,
1010102210220220,
2022022000
#SCROLL 4
600000,
#GOGOSTART
#SCROLL 1
8012202120210120,
1022102120120220,
1022102010120210,
1022102010120220,
1002221200021212,
0020102110212020,
1012011210120220,
400000400000400000200
#GOGOEND
200000000201010200000200000,
#GOGOSTART
#SCROLL 2
3
#SCROLL 1
012202120210120,
1022102120120220,
1022102010120210,
1022102120120220,
1002221200021212,
0020102121012020,
1012001210120220,
4040402
#GOGOEND
200222020,
3021202010210110,
1011201012012022,
1001202010120210,
2022120021022021,
1011202010210120,
1011012010212020,
1012021020120110,
200020002000000020002000200000000000200000200200,
200020002000000020002000200000100100200100100100,
00000
#SCROLL 4
600,
#GOGOSTART
#SCROLL 1
8012202120210120,
1022102120120220,
1022102010120210,
1022102210120220,
1002221200021212,
0001122202011020,
1012011210120220,
400000400000400000200
#GOGOEND
200000000201010200000200000,
#GOGOSTART
#SCROLL 2
3
#SCROLL 1
010201101220112,
2201201101202110,
1210220110120121,
2211201202211122,
1021010101202020,
1012010102222010,
1010102210220220,
4040402
#GOGOEND
200000000,
#END