generated from DragonRatTiger/Custom-Charts
444 lines
4.0 KiB
Plaintext
444 lines
4.0 KiB
Plaintext
TITLE:Number One
|
|
SUBTITLE:--Shani feat. Miku Hatsune
|
|
TITLEJA:Number One
|
|
SUBTITLEJA:Shani feat. 初音ミク
|
|
PREIMAGE:Number One.png
|
|
BGMOVIE:Number One.mp4
|
|
WAVE:Number One.ogg
|
|
BPM:180
|
|
OFFSET:-0.047
|
|
DEMOSTART:57.380
|
|
GENRE:ボーカロイド
|
|
MAKER:Colin
|
|
|
|
COURSE:Easy
|
|
LEVEL:2
|
|
BALLOON:5
|
|
NOTESDESIGNER0:Colin
|
|
|
|
#START
|
|
,
|
|
#GOGOSTART
|
|
30
|
|
#GOGOEND
|
|
0
|
|
#GOGOSTART
|
|
30
|
|
#GOGOEND
|
|
0
|
|
#GOGOSTART
|
|
60,
|
|
0
|
|
#GOGOEND
|
|
8,
|
|
#GOGOSTART
|
|
31,
|
|
1110,
|
|
11,
|
|
1,
|
|
22,
|
|
2220,
|
|
22,
|
|
2,
|
|
11,
|
|
1110,
|
|
11,
|
|
1,
|
|
22,
|
|
2220,
|
|
22,
|
|
2,
|
|
#GOGOEND
|
|
1,
|
|
,
|
|
11,
|
|
1,
|
|
1,
|
|
1,
|
|
11,
|
|
1,
|
|
2,
|
|
,
|
|
22,
|
|
2,
|
|
2,
|
|
2,
|
|
22,
|
|
2,
|
|
3,
|
|
3,
|
|
33,
|
|
3,
|
|
4004,
|
|
,
|
|
40000004,
|
|
,
|
|
#GOGOSTART
|
|
31,
|
|
1110,
|
|
11,
|
|
3,
|
|
30033000,
|
|
30033000,
|
|
30000006,
|
|
08,
|
|
42,
|
|
2220,
|
|
22,
|
|
2,
|
|
20020002,
|
|
00020000,
|
|
40000006,
|
|
08,
|
|
#GOGOEND
|
|
30030003,
|
|
,
|
|
#GOGOSTART
|
|
31,
|
|
1110,
|
|
11,
|
|
1,
|
|
22,
|
|
2220,
|
|
22,
|
|
2,
|
|
11,
|
|
1110,
|
|
11,
|
|
1,
|
|
22,
|
|
2220,
|
|
22,
|
|
2,
|
|
#MEASURE 12/4
|
|
#GOGOEND
|
|
0
|
|
#GOGOSTART
|
|
9000000000
|
|
#GOGOEND
|
|
8,
|
|
#END
|
|
|
|
COURSE:Normal
|
|
LEVEL:4
|
|
BALLOON:15
|
|
NOTESDESIGNER1:Colin
|
|
|
|
#START
|
|
,
|
|
#GOGOSTART
|
|
30
|
|
#GOGOEND
|
|
0
|
|
#GOGOSTART
|
|
30
|
|
#GOGOEND
|
|
0
|
|
#GOGOSTART
|
|
60,
|
|
0
|
|
#GOGOEND
|
|
8,
|
|
#GOGOSTART
|
|
30001011,
|
|
1110,
|
|
1011,
|
|
1,
|
|
20002022,
|
|
2222,
|
|
20002022,
|
|
2,
|
|
10001011,
|
|
1110,
|
|
1011,
|
|
1,
|
|
20002022,
|
|
2222,
|
|
20002022,
|
|
2,
|
|
#GOGOEND
|
|
10000001,
|
|
00010010,
|
|
10010001,
|
|
,
|
|
10000101,
|
|
00000001,
|
|
10110101,
|
|
,
|
|
20000002,
|
|
00020020,
|
|
20020002,
|
|
,
|
|
20000202,
|
|
00000002,
|
|
20220022,
|
|
,
|
|
3,
|
|
3,
|
|
33,
|
|
3,
|
|
4004,
|
|
,
|
|
40000004,
|
|
,
|
|
#GOGOSTART
|
|
3110,
|
|
10111000,
|
|
1110,
|
|
3,
|
|
30033000,
|
|
30033000,
|
|
30000006,
|
|
08,
|
|
40002022,
|
|
2220,
|
|
20002022,
|
|
22,
|
|
20020002,
|
|
00020000,
|
|
40000006,
|
|
08,
|
|
#GOGOEND
|
|
30030003,
|
|
,
|
|
#GOGOSTART
|
|
30001011,
|
|
1110,
|
|
1011,
|
|
1,
|
|
20002022,
|
|
2222,
|
|
20002022,
|
|
2,
|
|
10001011,
|
|
1110,
|
|
1011,
|
|
1,
|
|
20002022,
|
|
2222,
|
|
20002022,
|
|
2,
|
|
#MEASURE 12/4
|
|
#GOGOEND
|
|
0
|
|
#GOGOSTART
|
|
9000000000
|
|
#GOGOEND
|
|
8,
|
|
#END
|
|
|
|
COURSE:Hard
|
|
LEVEL:5
|
|
BALLOON:20
|
|
NOTESDESIGNER2:Colin
|
|
|
|
#START
|
|
,
|
|
#GOGOSTART
|
|
30
|
|
#GOGOEND
|
|
0
|
|
#GOGOSTART
|
|
30
|
|
#GOGOEND
|
|
0
|
|
#GOGOSTART
|
|
60,
|
|
0
|
|
#GOGOEND
|
|
8,
|
|
#GOGOSTART
|
|
30201222,
|
|
02010201,
|
|
00001021,
|
|
01020000,
|
|
10201122,
|
|
02010201,
|
|
00201012,
|
|
02050080,
|
|
10201222,
|
|
02010201,
|
|
00001021,
|
|
01020000,
|
|
10201122,
|
|
02010201,
|
|
00201012,
|
|
02050080,
|
|
#GOGOEND
|
|
20220022,
|
|
00220020,
|
|
20220022,
|
|
0001,
|
|
10110101,
|
|
00110010,
|
|
11110101,
|
|
,
|
|
10210022,
|
|
00220010,
|
|
10110012,
|
|
0002,
|
|
10210201,
|
|
00120000,
|
|
11210025,
|
|
08,
|
|
10011000,
|
|
20022020,
|
|
10110111,
|
|
0022,
|
|
30030030,
|
|
00001111,
|
|
30210105,
|
|
0008,
|
|
#GOGOSTART
|
|
30201120,
|
|
10210100,
|
|
0121,
|
|
20120200,
|
|
20011000,
|
|
20011011,
|
|
20120205,
|
|
08,
|
|
30201120,
|
|
10210100,
|
|
0121,
|
|
20120200,
|
|
10210201,
|
|
02210011,
|
|
20120025,
|
|
08,
|
|
#GOGOEND
|
|
30330046,
|
|
0008,
|
|
#GOGOSTART
|
|
30201222,
|
|
02010201,
|
|
00001021,
|
|
01020000,
|
|
10201122,
|
|
02010201,
|
|
00201012,
|
|
02050080,
|
|
10201222,
|
|
02010201,
|
|
00001021,
|
|
01020000,
|
|
10201122,
|
|
02010201,
|
|
00201012,
|
|
02050080,
|
|
#MEASURE 12/4
|
|
#GOGOEND
|
|
0
|
|
#GOGOSTART
|
|
9000000000
|
|
#GOGOEND
|
|
8,
|
|
#END
|
|
|
|
COURSE:Oni
|
|
LEVEL:8
|
|
BALLOON:40
|
|
NOTESDESIGNER3:Colin
|
|
|
|
#START
|
|
2000200022222010,
|
|
#GOGOSTART
|
|
3022
|
|
#GOGOEND
|
|
20
|
|
#GOGOSTART
|
|
3022
|
|
#GOGOEND
|
|
20
|
|
#GOGOSTART
|
|
6000,
|
|
0
|
|
#GOGOEND
|
|
8,
|
|
#GOGOSTART
|
|
3000201210201010,
|
|
0010201201102011,
|
|
1000201210201020,
|
|
0010201201102211,
|
|
1000201210201010,
|
|
0010201201102011,
|
|
1000201210201020,
|
|
0011201210102020,
|
|
3000202210201010,
|
|
0010202210102011,
|
|
1000202210202010,
|
|
0010201210102222,
|
|
1000202210201010,
|
|
0010202210102011,
|
|
1000202210202010,
|
|
0010201022112211,
|
|
#GOGOEND
|
|
1000200210200010,
|
|
0010201210102000,
|
|
1000200210200010,
|
|
0010201212102000,
|
|
1000200210200010,
|
|
0010201210102000,
|
|
1000200210200010,
|
|
01221122,
|
|
1000201011101020,
|
|
0010202210102000,
|
|
10211201,
|
|
0010201210102000,
|
|
1000202210200010,
|
|
0010220210102000,
|
|
1010201101202030,
|
|
0010201210102000,
|
|
40033000,
|
|
40033020,
|
|
20220221,
|
|
0000000022112000,
|
|
3022203022203030,
|
|
0022202011112222,
|
|
1000200210102030,
|
|
0022201022112000,
|
|
#GOGOSTART
|
|
3000201210202010,
|
|
3000201212102000,
|
|
1000201120201020,
|
|
3000201112102000,
|
|
1000202210201000,
|
|
1000202210201000,
|
|
3000201211202030,
|
|
0010201211102222,
|
|
1000201210202010,
|
|
3000201212102000,
|
|
1000201120201020,
|
|
3000201112102000,
|
|
30230203,
|
|
0010201201102020,
|
|
30230223,
|
|
0010201201102010,
|
|
#GOGOEND
|
|
30230226,
|
|
0008,
|
|
#GOGOSTART
|
|
3000201210201010,
|
|
0010201201102011,
|
|
1000201210201020,
|
|
0010201201102211,
|
|
1000201210201010,
|
|
0010201201102011,
|
|
1000201210201020,
|
|
0011201210102020,
|
|
3000202210201010,
|
|
0010202210102011,
|
|
1000202210202010,
|
|
0010201210102222,
|
|
1000202210201010,
|
|
0010202210102011,
|
|
1000202210202010,
|
|
0010201022112211,
|
|
#MEASURE 12/4
|
|
#GOGOEND
|
|
1
|
|
#GOGOSTART
|
|
9000000000
|
|
#GOGOEND
|
|
8,
|
|
#END |