Files
2025-12-20 15:52:49 -05:00

369 lines
3.1 KiB
Plaintext

TITLE:Order-Made
SUBTITLE:--Kasamura Tota feat. Leo/need / Project SEKAI COLORFUL STAGE!
TITLEJA:オーダーメイド
SUBTITLEJA:傘村トータ feat. Leo/need 「プロジェクトセカイ カラフルステージ!」より
PREIMAGE:Order Made.png
BGMOVIE:Order Made.mp4
WAVE:Order Made.ogg
BPM:150
OFFSET:-1.300
DEMOSTART:53.300
MAKER:Colin
COURSE:Easy
LEVEL:1
SCOREINIT:
SCOREDIFF:
NOTESDESIGNER0:Colin
#START
,
3,
,
3003,
,
3,
,
3,
,
3,
,
3,
,
3,
3,
3,
2020,
5,
,
8020,
1010,
5,
8010,
1,
2020,
2,
2,
1111,
,
1010,
1,
20200200,
2,
#GOGOSTART
6083,
3010,
3010,
1,
1010,
1,
2020,
2,
1010,
1,
2020,
2,
1010,
1,
1010,
#GOGOEND
1,
0022,
#GOGOSTART
6083,
3010,
3010,
1,
1010,
1,
2020,
2,
1010,
1,
2020,
2,
1010,
1,
1010,
1110,
1110,
101
#GOGOEND
6,
,
8,
2,
202
#BPMCHANGE 135
#SCROLL 1.11111
0,
,
#END
COURSE:Normal
LEVEL:2
SCOREINIT:
SCOREDIFF:
NOTESDESIGNER1:Colin
#START
,
3,
1010,
3013,
0010,
3,
1010,
3,
1010,
3010,
1,
3001,
1010,
3010,
3010,
3,
2222,
5,
,
8020,
1110,
5,
8011,
1,
2220,
2020,
2020,
1111,
0110,
1011,
1001,
20200200,
2,
#GOGOSTART
6083,
3111,
30001011,
1110,
10001011,
1011,
20102011,
2110,
1011,
10001011,
2121,
2011,
1011,
1010,
1010,
#GOGOEND
1,
0022,
#GOGOSTART
6083,
30111011,
3112,
10002022,
1212,
1020,
20222022,
2220,
10111010,
1012,
20222022,
2011,
10111011,
1011,
1010,
1110,
10101011,
111
#GOGOEND
6,
,
8,
2,
202
#BPMCHANGE 135
#SCROLL 1.11111
0,
,
#END
COURSE:Hard
LEVEL:3
SCOREINIT:
SCOREDIFF:
NOTESDESIGNER2:Colin
#START
000000000002,
1010,
100100101100,
1002,
0100,
1110,
1012,
1002,
,
1020,
100100101100,
1002,
,
1,
100000101100,
1002,
2222,
1021,
100200100201,
1020,
1222,
2012,
100200100201,
001100200100,
1112,
2020,
200000200002,
1112,
0011,
1210,
1020,
10100100,
1022,
#GOGOSTART
1022,
1011,
200101000100,
1022,
1022,
1010,
1020,
1022,
1022,
1010,
2010,
2011,
1010,
1011,
1010,
#GOGOEND
2020,
404040000000,
#GOGOSTART
1022,
1011,
200202000100,
1022,
1022,
1011,
100101000100,
1022,
1022,
1010,
2212,
2011,
1211,
2022,
100100100111,
1020,
1120,
102
#GOGOEND
2,
0011,
1,
1,
101
#BPMCHANGE 135
#SCROLL 1.11111
0,
#END
COURSE:Oni
LEVEL:7
SCOREINIT:
SCOREDIFF:
NOTESDESIGNER3:Colin
#START
000000000002,
100200200101,
200200201100,
100001100200,
000100200102,
100200100202,
200202100200,
100001000200,
000100200202,
100000200202,
100200201200,
100000000010100022100020,
100200100202,
100100200102,
200200102200,
100001200202,
101202202100,
100100201102,
101101202102,
101100200202,
200200101100,
200100200202,
100101201101,
100100200202,
102101201200,
2010,
200000100001,
3344,
001201101202,
101101201200,
100101201001,
301400104001,
4022,
#GOGOSTART
302101200202,
101101201202,
101102101102,
101100201200,
300200201202,
102100200102,
100101201102,
102101202100,
300101201202,
101100202101,
200201200101,
202102101102,
200200101202,
102101200202,
101201201100,
#GOGOEND
200112211200,
403030200200,
#GOGOSTART
301101201202,
102101101202,
101102201101,
202101202102,
100201201202,
100020100010200020100022,
102101201101,
102101201111,
102101200202,
102101200101,
200202101201,
202101101100,
400102101101,
202101200202,
101101211211,
200100200202,
102100200102,
101221111
#GOGOEND
200,
000002100100,
2111,
2022,
111
#BPMCHANGE 135
#SCROLL 1.11111
2,
#END