Files
2025-12-20 15:52:49 -05:00

799 lines
7.4 KiB
Plaintext

TITLE:●utlaws
SUBTITLE:--masarada feat. Teto Kasane
TITLEJA:㋰責任集合体
SUBTITLEJA:マサラダ feat. 重音テト
PREIMAGE:Outlaws.png
BGMOVIE:Outlaws.mp4
WAVE:Outlaws.ogg
BPM:135
OFFSET:-1.855
DEMOSTART:60.077
GENRE:ボーカロイド
MAKER:Colin
COURSE:Easy
LEVEL:4
BALLOON:2
SCOREINIT:
SCOREDIFF:
NOTESDESIGNER0:Colin
#START
70080000,
1010,
1,
2020,
2,
1010,
1,
2020,
2
#GOGOSTART
000,
#GOGOEND
1010,
1110,
1010,
1,
2020,
2220,
2020,
2,
1010,
1010,
5080,
,
2020,
2020,
5080,
,
1011,
1010,
1011,
1,
2020,
2220,
2020,
6080,
#GOGOSTART
3011,
1010,
3010,
1,
4020,
2220,
200000002000000
#GOGOEND
0,
#GOGOSTART
4
#GOGOEND
0
#GOGOSTART
0
#GOGOEND
0
#GOGOSTART
4
#GOGOEND
0
#GOGOSTART
0
#GOGOEND
0
#GOGOSTART
4
#GOGOEND
0000000,
#GOGOSTART
1010,
1,
2020,
2,
1010,
1,
2020,
2,
#GOGOEND
1,
1100,
2002,
2200,
1010,
1100,
2020,
2400,
#GOGOSTART
1010,
1110,
1010,
1,
2020,
2220,
2020,
2,
1010,
1110,
1010,
1,
2020,
2220,
2020,
2,
1,
#GOGOEND
3,
3,
3,
3,
3,
3,
3010,
5,
0008,
#GOGOSTART
3010,
1110,
2020,
2220,
1010,
1110,
100000001000000
#GOGOEND
0,
#GOGOSTART
4
#GOGOEND
0
#GOGOSTART
0
#GOGOEND
0
#GOGOSTART
4
#GOGOEND
0
#GOGOSTART
0
#GOGOEND
0
#GOGOSTART
4
#GOGOEND
0000000,
#GOGOSTART
1010,
1110,
2020,
2220,
2020,
2,
#GOGOEND
1010,
1,
#GOGOSTART
3030,
3,
3030,
3,
4040,
4,
4040,
4,
#GOGOEND
4,
1,
1100,
1,
1100,
1,
1100,
1010,
1,
#END
COURSE:Normal
LEVEL:4
BALLOON:4
SCOREINIT:
SCOREDIFF:
NOTESDESIGNER1:Colin
#START
70080000,
1010,
1100,
2020,
2200,
1010,
1100,
2020,
2
#GOGOSTART
000,
#GOGOEND
1010,
11100010,
1010,
1100,
20022000,
2200,
20022002,
2,
10011000,
10011001,
5080,
,
20022000,
20022002,
5080,
,
10001011,
1010,
10001011,
1,
20002022,
2220,
2020,
6080,
#GOGOSTART
30001011,
1110,
30001011,
1010,
40002022,
2220,
200000002000200
#GOGOEND
0,
#GOGOSTART
4
#GOGOEND
0
#GOGOSTART
0
#GOGOEND
0
#GOGOSTART
4
#GOGOEND
0
#GOGOSTART
0
#GOGOEND
0
#GOGOSTART
4
#GOGOEND
0000000,
#GOGOSTART
10001011,
1010,
20002022,
2020,
10001011,
1010,
20222020,
2,
#GOGOEND
1010,
1100,
20002022,
2200,
1010,
1100,
2020,
2400,
#GOGOSTART
10001011,
1110,
10001011,
1100,
20222000,
20222000,
2022,
2020,
10001011,
1110,
10001011,
1010,
20002022,
2220,
20002022,
2020,
1011,
#GOGOEND
3,
3,
3,
3,
3,
3,
3010,
5,
0008,
#GOGOSTART
30011010,
10111000,
20002022,
2220,
10001011,
1110,
100000001000100
#GOGOEND
0,
#GOGOSTART
4
#GOGOEND
0
#GOGOSTART
0
#GOGOEND
0
#GOGOSTART
4
#GOGOEND
0
#GOGOSTART
0
#GOGOEND
0
#GOGOSTART
4
#GOGOEND
0000000,
#GOGOSTART
10001011,
1110,
20002022,
2220,
2020,
20222000,
#GOGOEND
10111000,
1,
#GOGOSTART
3030,
3330,
3030,
3,
4040,
4440,
4040,
4,
#GOGOEND
4,
1010,
1100,
1010,
11100000,
1010,
11100000,
1010,
1,
#END
COURSE:Hard
LEVEL:5
BALLOON:8
SCOREINIT:
SCOREDIFF:
NOTESDESIGNER2:Colin
#START
70080000,
10200120,
1000200100102000,
10200120,
10200120,
10200120,
1000200100102000,
1000200100102000,
3
#GOGOSTART
400,
#GOGOEND
1010200110102000,
1022200000000011,
1000001110102000,
1000200100102000,
1000201110002020,
1000200101102000,
10201120,
3000000000000022,
2000002220000022,
2000002220000022,
5080,
0000000000000011,
1000001110000011,
1000001110000011,
5080,
6080,
1000100010010010,
1111,
1000100010010010,
1111,
1000100010010010,
1000100010020020,
2022202220222020,
6008,
#GOGOSTART
3000200220202020,
10201144,
4000001110102000,
1010200110104040,
40201120,
1010200110102000,
101020011010404
#GOGOEND
0,
#GOGOSTART
4
#GOGOEND
0
#GOGOSTART
4
#GOGOEND
0
#GOGOSTART
4
#GOGOEND
0
#GOGOSTART
4
#GOGOEND
0
#GOGOSTART
4
#GOGOEND
0000000,
#GOGOSTART
1010200110102000,
12121000,
1010200110102010,
11111020,
1010200110102010,
1002200010102020,
10221022,
1000400030000011,
#GOGOEND
1000002220000011,
1022200000000011,
1000002220000011,
1022200000000011,
1000002220000011,
1022200000000011,
1000002220000011,
1400,
#GOGOSTART
3000200022022020,
11201122,
10201120,
1022200020202000,
10201120,
10221120,
10201120,
12202021,
10200120,
1000200100102000,
10201120,
1000200100102000,
10201120,
1000200100102000,
10201120,
1000200100102000,
10201120,
#GOGOEND
30000003,
3,
30000003,
3,
30000003,
3,
4022202220222020,
5,
0008,
#GOGOSTART
3000200220202020,
10201144,
4000101110102000,
1010200110104040,
40201120,
1010200110102000,
101020011010404
#GOGOEND
0,
#GOGOSTART
4
#GOGOEND
0
#GOGOSTART
4
#GOGOEND
0
#GOGOSTART
4
#GOGOEND
0
#GOGOSTART
4
#GOGOEND
0
#GOGOSTART
4
#GOGOEND
0000000,
#GOGOSTART
11221210,
11211020,
11201212,
10201122,
10202221,
10121022,
#GOGOEND
20222022,
2400,
#GOGOSTART
3330,
3330,
3330,
3330,
4040,
4440,
4444,
4440,
#GOGOEND
0,
10200120,
1000200100102000,
10200120,
10200120,
10200120,
1000200100102000,
1010,
3,
#END
COURSE:Oni
LEVEL:9
BALLOON:8,6
SCOREINIT:
SCOREDIFF:
NOTESDESIGNER3:Colin
#START
7000008000000012,
2010202221102022,
1022201102102022,
1010202221102022,
1022202101102012,
1010202212102012,
2011102101102022,
2010202220102012,
1000
#GOGOSTART
#SCROLL 2
60000000
#SCROLL 1
8012,
#GOGOEND
2010202120102012,
2022202102102011,
2010202120102012,
2011201102102022,
1010202210102012,
1012102101102012,
1010202220102021,
2012202121102022,
2010202220102022,
2010202220102022,
2010201102102012,
1010202202102022,
2010202220102022,
2010202220102022,
200000100000200000200100000100100000200000201010,
2020201220101000,
3020102210210122,
1020102210201022,
1020102210210122,
1020102210201020,
1020102210210122,
1020102210201020,
4022202220222020,
34444043,
#GOGOSTART
#SCROLL 2
4
#SCROLL 1
010220212012012,
1021021122012040,
4011201210202120,
1022022220104021,
2010220212012012,
1021021122012040,
401120121020401
#GOGOEND
0,
#GOGOSTART
#SCROLL 1
4
#GOGOEND
0
#GOGOSTART
#SCROLL 1.125
4
#GOGOEND
0
#GOGOSTART
#SCROLL 1.25
4
#GOGOEND
0
#GOGOSTART
#SCROLL 1.375
4
#GOGOEND
0
#GOGOSTART
#SCROLL 1.5
4
#GOGOEND
#SCROLL 1
0112222,
#GOGOSTART
1010220211012020,
1101202012022020,
1011201211012011,
1010202212012010,
1011201022012020,
1012021121012020,
3012202030122020,
300000100000400000101010200200100100200100100200,
#GOGOEND
1010201211012011,
1011201122112022,
2010201220102011,
1012201212102021,
1010201220102021,
1012202102112021,
2010202120102022,
11
#SCROLL 2
60000
#SCROLL 1
8,
#GOGOSTART
1101202122120120,
102101201202002101201201,
0021211202102122,
1012021170008000,
1010201211204040,
1120221201212122,
100000202020200000100200100100100000200000100200,
1012221210112022,
1212102102102222,
1010202102102022,
1101201102102020,
1010202102102022,
1010202102102022,
100100000100200000200100000200100000202020200000,
1011201102102222,
1010202102102020,
1011201212102000,
#GOGOEND
30000003,
3,
30000003,
3,
30000003,
3,
3022202220222020,
5008,
#MEASURE 1/16
#SCROLL 1
6,
#SCROLL 1.0625
0,
#SCROLL 1.125
0,
#SCROLL 1.1875
0,
#SCROLL 1.25
0,
#SCROLL 1.3125
0,
#SCROLL 1.375
0,
#SCROLL 1.4375
0,
#SCROLL 1.5
0,
#SCROLL 1.5625
0,
#SCROLL 1.625
0,
#SCROLL 1.6875
0,
#SCROLL 1.75
8,
#SCROLL 1.8125
0,
#SCROLL 1.875
0,
#SCROLL 1.9375
0,
#MEASURE 4/4
#GOGOSTART
#SCROLL 2
4
#SCROLL 1
010220212012012,
1021021122012040,
4011201210202120,
1022022220104021,
2010220212012012,
1021021122012040,
401120121020401
#GOGOEND
0,
#GOGOSTART
#SCROLL 1
4
#GOGOEND
0
#GOGOSTART
#SCROLL 1.125
4
#GOGOEND
0
#GOGOSTART
#SCROLL 1.25
4
#GOGOEND
0
#GOGOSTART
#SCROLL 1.375
4
#GOGOEND
0
#GOGOSTART
#SCROLL 1.5
4
#GOGOEND
#SCROLL 1
0112222,
#GOGOSTART
1010220211012020,
1101202012022020,
1011201211012011,
1010202212012010,
1011201022012020,
1012021121012020,
#GOGOEND
30123012,
3
#SCROLL 2
60
#SCROLL 1
8,
#GOGOSTART
301102102101,
101101201101,
201201202201,
201202202101,
200201201101,
100101200201,
201201200202,
100201202100,
#GOGOEND
3021202120202012,
2010202221102022,
1022201102102022,
1010202221102022,
1022202101102012,
1010202212102012,
1022202101102011,
1000001120000012,
2,
#END