Files
2025-12-20 15:52:49 -05:00

377 lines
5.2 KiB
Plaintext

TITLE:Pheles
SUBTITLE:--Yuri Kuriyama feat. Miku Hatsune & MEIKO / GABULI
TITLEJA:フェレス
SUBTITLEJA:栗山夕璃 feat. 初音ミク、MEIKO 「ガブリ」より
PREIMAGE:Pheles.png
BGMOVIE:Pheles.mp4
WAVE:Pheles.ogg
BPM:110
OFFSET:-2.214
DEMOSTART:53.668
MAKER:Colin
COURSE:Easy
LEVEL:3
SCOREINIT:
SCOREDIFF:
NOTESDESIGNER0:Colin
#START
3,
2,
3,
2,
#GOGOSTART
#SCROLL 1.6
1110,
2220,
#GOGOEND
000
#GOGOSTART
1
#SCROLL 1.6
00100000100000000000,
2220,
#GOGOEND
1
#SCROLL 1.3
00000000000200000000000,
1,
1210,
2020,
1010,
1,
2020,
2,
1010,
1110,
2020,
2,
1010,
1,
2020,
1,
#GOGOSTART
#SCROLL 1.6
3030,
3020,
4040,
6080,
3030,
3020,
4040,
1020,
1021,
1020,
1021,
1020,
1020,
1110,
2010,
2010,
#GOGOEND
2
#SCROLL 1.3
00000000000000000000000,
#GOGOSTART
#SCROLL 1.9
3330,
4440,
1020,
6080,
2220,
1110,
2220,
1110,
1210,
1010,
1210,
1010,
1210,
1010,
1210,
2020,
#GOGOEND
1
#SCROLL 1.6
00000000000200000000000,
2210,
2020,
1010,
3,
#END
COURSE:Normal
LEVEL:5
SCOREINIT:
SCOREDIFF:
NOTESDESIGNER1:Colin
#START
3,
2,
3,
2,
#GOGOSTART
#SCROLL 1.6
10101110,
20202220,
#GOGOEND
000
#GOGOSTART
1
#SCROLL 1.6
00100000100000100000,
20202220,
#GOGOEND
1
#SCROLL 1.3
00000000000200000200000,
1020,
10201110,
20002022,
1210,
1210,
20202022,
2120,
1011,
10111000,
2220,
2220,
10101110,
1020,
2220,
1010,
#GOGOSTART
#SCROLL 1.6
3230,
3120,
4240,
6080,
3230,
3220,
4140,
1120,
10002012,
1020,
10002012,
1020,
10002012,
1110,
2012,
2011,
#GOGOEND
2
#SCROLL 1.3
00000000000000000000000,
#GOGOSTART
#SCROLL 1.9
30303011,
40404022,
1222,
6080,
20202220,
10101110,
20202022,
10101011,
10201011,
1210,
10201011,
1210,
10201022,
1010,
10201022,
2220,
#GOGOEND
1
#SCROLL 1.6
00000100000200000000000,
2210,
2220,
1210,
3,
#END
COURSE:Hard
LEVEL:6
SCOREINIT:
SCOREDIFF:
NOTESDESIGNER2:Colin
#START
3,
2,
3,
2,
#GOGOSTART
#SCROLL 1.6
12120212,
10120212,
#GOGOEND
000
#GOGOSTART
#SCROLL 2
4
#SCROLL 1.6
00100200000200100200,
02120210,
#GOGOEND
1
#SCROLL 1.3
00002200200100102000200,
100000200000200002000000,
101100200102000200100200,
200500000080000200100200,
100101100200201101001002,
000200100200100202001002,
000200102002000200100001,
002000000000000000200200,
100001000100200001000200,
100205000000800000202020,
200002000200100002000100,
202002002000100000100200,
200001000000200001000100,
200020000200000000100000200020000200000020000000,
200002200201001101102000,
200201000000000000000000,
#GOGOSTART
#SCROLL 1.6
300002201100200200002200,
100001100200201000202002,
000101102002000201100200,
202020001010200100100200,
400001100200200100000200,
100001100100100100202020,
100200200101000200200202,
000002200200200102000200,
100001000100001000000000,
100002000201000100200200,
100001000100001000100200,
200200202200100202201000,
102001000102001000200200,
100202000102000100100100,
2002002002001010,
10101011,
#GOGOEND
1
#SCROLL 1.3
00000000000000000000000,
#GOGOSTART
#SCROLL 1.9
300002201100200200002200,
100001100200201000202002,
000101102002000201100200,
202020001010200100100200,
400001100200200100000200,
100001100100100100202020,
100200200101000200200202,
000002200200200102000200,
100001000100001000000000,
100002000201000100200200,
100001000100001000100200,
200200202200100202201000,
102001000102001000200200,
100202000102000100100100,
2002002002001010,
10101011,
#GOGOEND
1
#SCROLL 1.6
00000100000100000000000,
1020020020020000,
0020020020020000,
02122212,
1,
#END
COURSE:Oni
LEVEL:8
SCOREINIT:
SCOREDIFF:
NOTESDESIGNER3:Colin
#START
201102001201001201001101,
101102002201101102002111,
102202001201001201002100,
201202001201102101101100,
#GOGOSTART
#SCROLL 1.6
301201101202101201101200,
301201101202101201101211,
#GOGOEND
000
#GOGOSTART
#SCROLL 2
4
#SCROLL 1.6
01101202101201101200,
301201101202122101102102,
#GOGOEND
1
#SCROLL 1.3
01202101202101202101202,
201202202201201202101201,
102100202102001202201202,
202101202102101201101200,
201101102201202101001002,
101201101201101204003002,
100201202001001202201201,
201101101201102201202200,
300003000100400003000200,
200205000000800000202010,
200002002000200102000100,
202002002000200000100200,
100000000000200000001000100000000000000000000000200000000000100000000200000000000000200000000000,
200020001000000000100020200020000200000020000020,
200222101201001101102000,
200101000000000101101200,
#GOGOSTART
#SCROLL 1.6
301202201202201201101200,
401201102201201201202201,
101202102202102202201100,
404030303030400121104040,
301202201202201201101200,
401201102201201201102010,
301202102202102202201201,
100201202201211202101202,
102201001102201201101202,
101202001201102101201102,
102201001102201201101202,
101202201201202201201202,
102201001102201201101202,
101202001201102101201102,
102201001102201201101202,
101202101201201202201102,
#GOGOEND
1
#SCROLL 1.3
00000200000100101101200,
#GOGOSTART
#SCROLL 1.9
301202201202201201101200,
401201102201201201202201,
101202102202102202201100,
404030303030400121104040,
301202201202201201101200,
401201102201201201102010,
301202102202102202201201,
100201202201211202101202,
102201001102201201101202,
101202001201102101201102,
102201001102201201101202,
101202201201202201201202,
102201001102201201101202,
101202001201102101201102,
102201001102201201101202,
101202101201201202201101,
#GOGOEND
2
#SCROLL 1.6
01201102101201201001201,
101201101202101201012111,
101201102101201201002101,
101201101202201200200100,
1,
#END