Files
2025-12-20 15:52:49 -05:00

391 lines
4.0 KiB
Plaintext

TITLE:Positive☆Dance Time
SUBTITLE:--kinoshita feat. Una Otomachi & Rin Kagamine
TITLEJA:ポジティブ☆ダンスタイム
SUBTITLEJA:キノシタ feat. 音街ウナ, 鏡音リン
PREIMAGE:Positive Dance Time.png
BPM:210
BGMOVIE:Positive Dance Time.mp4
WAVE:Positive Dance Time.ogg
OFFSET:-0.033
DEMOSTART:60.033
MAKER:Colin
COURSE:Oni
LEVEL:9
SCOREINIT:
SCOREDIFF:
NOTESDESIGNER3:Colin
#START
1000100010112000,
20201201,
02122221,
20102101,
01211021,
20202012,
01204040,
34330403,
03443020,
#GOGOSTART
1022102010222020,
1022102010112020,
2011102010221020,
1022101010221010,
3022102010112020,
1022201020221020,
2011202010112040,
0040004030112000,
#GOGOEND
10021002,
10020121,
10012001,
2000201000112010,
11210121,
01210120,
10120212,
0020101020112000,
10021001,
20021122,
10012001,
2000201000112010,
#GOGOSTART
11230123,
01230120,
#GOGOEND
30210123,
0010101020112000,
40404112,
02121210,
40404121,
100000100100200000100000200010001000200010001000,
11221014,
0030404000112020,
1000101020112040,
03433000,
10201201,
0010202010221020,
10201201,
0010200010112000,
10201202,
01212212,
3434,
41414140,
,
2222,
1000100010111010,
0012101011112020,
#GOGOSTART
1020111020102022,
1022102010221020,
34334334,
1010202210221020,
1011201040112010,
4011201030101010,
02210214,
0030400011112020,
1020111020102022,
1022102010221020,
34334333,
41221212,
#GOGOEND
3040,
3010101010101111,
20000003,
04334003,
03444020,
34334334,
3011101040304030,
#GOGOSTART
#SCROLL 1.2
1020111020102022,
1022102010221020,
34334333,
41221212,
1120112010201020,
1120112010201020,
02120112,
0010200020112020,
1020111020102022,
1022102010221020,
34334333,
41221212,
#GOGOEND
#SCROLL 1
4030,
4010101040101111,
20000002,
01221212,
20201201,
02122221,
20102101,
01211021,
20202012,
01204040,
34330403,
03443000,
#END
COURSE:Hard
LEVEL:6
BALLOON:
SCOREINIT:
SCOREDIFF:
NOTESDESIGNER2:Colin
#START
10101120,
10101210,
12101210,
10101110,
12101120,
10101210,
12101020,
33330303,
03333000,
#GOGOSTART
12101210,
12101210,
12101210,
12101210,
12101210,
12101210,
12101123,
03033000,
#GOGOEND
5,
00080000,
5,
0000000080222010,
10210022,
12121120,
11011121,
01212020,
11201120,
11201120,
11201120,
11210120,
#GOGOSTART
1010201000111010,
12122120,
#GOGOEND
10210112,
01112000,
30303500,
00000008,
40404500,
0000000000000008,
00000003,
03330120,
12101121,
0010101020005008,
10201021,
01210120,
11201121,
01201120,
12101210,
12101202,
3434,
3333,
2,
2222,
1000100010111010,
0011102020002000,
#GOGOSTART
11101120,
12101210,
33334444,
11101212,
12121012,
10112012,
10121003,
04402100,
11101110,
12101210,
33334444,
10121012,
#GOGOEND
3030,
31111500,
00000803,
03336083,
03333020,
34343034,
11222120,
#GOGOSTART
11101120,
12101210,
33334444,
11101212,
12121012,
10112012,
10121003,
04402100,
11101110,
12101210,
33334444,
10121012,
#GOGOEND
3030,
31111500,
00000803,
03333343,
10101210,
12101210,
10101110,
12101120,
10101210,
12101020,
33330303,
03333000,
#END
COURSE:Normal
LEVEL:4
BALLOON:
SCOREINIT:
SCOREDIFF:
NOTESDESIGNER1:Colin
#START
#MEASURE 8/4
#SCROLL 0.5
00001010,
10101010,
10201010,
10106000,
0008
#GOGOSTART
1110,
11101110,
11101110,
11105000,
0008
#GOGOEND
0000,
22,
25,
08,
22,
22,
2
#GOGOSTART
5,
0008
#GOGOEND
1000,
10001110,
00001110,
22222001,
01011100,
11101010,
10101010,
10101110,
11102020,
22220000,
00000005,
0000
#GOGOSTART
8220,
11102220,
11102010,
20102010,
10111011,
10222020,
2020
#GOGOEND
5080,
50000008,
60086008,
22222222,
#GOGOSTART
11101110,
11102220,
10201020,
11102220,
11102220,
11111000,
#GOGOEND
22,
50085008,
10101010,
10101020,
10101010,
60000008,
#END
COURSE:Easy
LEVEL:2
BALLOON:
SCOREINIT:
SCOREDIFF:
NOTESDESIGNER0:Colin
#START
#MEASURE 8/4
#SCROLL 0.5
01,
11,
11,
16,
0008
#GOGOSTART
1010,
10101010,
10101010,
10105000,
0008
#GOGOEND
0000,
22,
25,
08,
22,
22,
2
#GOGOSTART
5,
0008
#GOGOEND
1000,
10001010,
00001010,
20202000,
01011000,
00100100,
11,
10001010,
10102000,
22220000,
00000005,
0000
#GOGOSTART
8020,
10102020,
10102000,
20102000,
10101000,
10200000,
2020
#GOGOEND
5080,
50000008,
60086008,
20202020,
#GOGOSTART
10101000,
10002020,
10001020,
10100000,
10102000,
10101000,
#GOGOEND
22,
50085008,
11,
11,
11,
60000008,
#END