Files
2025-12-20 15:52:49 -05:00

445 lines
4.6 KiB
Plaintext

// PeepoDrumKit 2022/09/10
TITLE:RAD DOGS
TITLEJA:RAD DOGS
SUBTITLE:--Hachioji-P feat. Vivid BAD SQUAD / Project SEKAI COLORFUL STAGE!
SUBTITLEJA:八王子P feat. Vivid BAD SQUAD / 「プロジェクトセカイ カラフルステージ!」より
BPM:140
WAVE:RAD DOGS.ogg
OFFSET:-0.032
DEMOSTART:71.389
MAKER:Colin
SONGVOL:94
SEVOL:40
BGMOVIE:RAD DOGS.mp4
COURSE:Oni
LEVEL:9
SCOREINIT:
SCOREDIFF:
#START
#BARLINEOFF
0,
,
#BARLINEON
11221122,
1010202022102211,
1010202010102022,
1010202022102211,
100000100100200000100000200000100100200000101010,
200000100100200000100000200000100100200000101010,
200000100100200000101010200000100100200000200000,
1221221121212222,
1020102210221020,
101010101010200000200000100000100200100000200200,
100000200000101010101010200000200100200000200000,
1020102010212010,
2011201020112010,
101010101010200000100000200000100100200000100100,
200000100000101010101010200000200100200000100000,
1221221121212222,
1000200010010020,
0020120200202010,
10021002,
1021012000202020,
2000102010010020,
0020220200201010,
20022002,
1221221121212222,
1021012010202020,
1012022010102020,
2012012010110120,
2012012010201010,
1011012010202010,
1011012010202020,
1012022010120210,
1101011022112120,
4010201110112010,
2022201120202020,
2,
,
,
,
,
,
#GOGOSTART
0,
,
,
,
,
,
,
,
,
,
,
,
,
,
,
,
,
,
,
,
,
,
,
1221221121212222,
#GOGOEND
1,
,
,
,
,
,
,
1221221121212222,
#BPMCHANGE 117
#SCROLL 1.19658
1000
#BPMCHANGE 230
#SCROLL 0.608696
10000100
#BPMCHANGE 244
#SCROLL 0.57377
2000,
2002002000200000,
2020,
#BPMCHANGE 223
#SCROLL 0.627803
020
#BPMCHANGE 190
#SCROLL 0.736842
0,
#BPMCHANGE 172
#SCROLL 0.813953
2002,
,
#END
COURSE:Hard
LEVEL:5
BALLOON:30
SCOREINIT:
SCOREDIFF:
#START
#BARLINEOFF
0,
,
#BARLINEON
11201120,
1010200022202220,
11201120,
1010200022202220,
11201120,
11202020,
2222,
50000008,
12101210,
1020100020222020,
12101210,
1020100020222020,
1212,
1000202020222020,
11201120,
50000008,
1111,
1111,
1111,
1111,
1111,
1111,
1111,
50000008,
1001100010011020,
1002001010102000,
1001100010011020,
1002001010102000,
1001100010011020,
1002001010102000,
1001100010011020,
1002001010102000,
50820111,
50820222,
50820212,
11212010,
1111,
1111,
33333333,
6080,
#GOGOSTART
3004003040040040,
0010210200101010,
1002001020020020,
0010220500000080,
1001101020020000,
1001101020020000,
11201110,
2002002000303030,
3004003040040040,
0010210200101010,
1002001020020020,
0010220500000080,
1001101020020000,
1001101020020000,
11201110,
2002002010102000,
5,
00008111,
1001001010010050,
00000008,
5,
00000008,
1010220220101020,
1010,
#GOGOEND
3030,
30003434,
30003033,
33303030,
3030,
3030,
3333,
50000008,
#BPMCHANGE 117
#SCROLL 1.19658
7
#BPMCHANGE 230
#SCROLL 0.608696
00
#BPMCHANGE 244
#SCROLL 0.57377
0,
,
,
#BPMCHANGE 223
#SCROLL 0.627803
000
#BPMCHANGE 190
#SCROLL 0.736842
0,
#BPMCHANGE 172
#SCROLL 0.813953
8,
,
#END
COURSE:Normal
LEVEL:5
BALLOON:30
SCOREINIT:
SCOREDIFF:
#START
#BARLINEOFF
0,
,
#BARLINEON
1210,
10202222,
1210,
10202222,
1210,
1220,
2220,
50000008,
1110,
10102222,
1110,
10102222,
1110,
10202222,
1212,
50000008,
1010,
1010,
1010,
1010,
1010,
1010,
1010,
50000008,
1001000010010000,
1002001000002000,
1001000010010000,
1002001000002000,
1001000010010000,
1002001000002000,
1001000010010000,
1002001000000000,
50820101,
50820202,
50820212,
1221,
1110,
1110,
3333,
6080,
#GOGOSTART
3004003040040040,
0010000200000000,
10012002,
0010020500000080,
1120,
1000100020020000,
1211,
20020333,
3004003040040040,
0010010200100000,
10002002,
0010020500000080,
10112000,
10112000,
11201010,
20020120,
5,
0080,
00000005,
00000008,
5,
00000008,
10101112,
1,
#GOGOEND
3030,
3030,
3030,
3030,
3030,
3030,
3030,
50000008,
#BPMCHANGE 117
#SCROLL 1.19658
7
#BPMCHANGE 230
#SCROLL 0.608696
00
#BPMCHANGE 244
#SCROLL 0.57377
0,
,
,
#BPMCHANGE 223
#SCROLL 0.627803
000
#BPMCHANGE 190
#SCROLL 0.736842
0,
#BPMCHANGE 172
#SCROLL 0.813953
8,
,
#END
COURSE:Easy
LEVEL:3
BALLOON:30
SCOREINIT:
SCOREDIFF:
#START
#BARLINEOFF
0,
,
#BARLINEON
1010,
1,
1010,
1,
1010,
1,
2020,
50000008,
1010,
1020,
1010,
1020,
1010,
1020,
1010,
50000008,
1,
1,
1,
1,
1,
1,
1,
50000008,
1010,
1010,
1010,
1002,
1010,
1002,
1010,
1010,
5800,
5800,
5800,
1020,
1010,
1010,
3333,
6080,
#GOGOSTART
60000008,
0010000200000000,
6,
8000000500000080,
1020,
1020,
1201,
20020600,
,
8010000200100000,
6,
8000000500000080,
1120,
1120,
1201,
20000120,
5,
0080,
00000005,
00000008,
5,
00000008,
10101002,
1,
#GOGOEND
3030,
3030,
3030,
3030,
3030,
3030,
3030,
50000008,
#BPMCHANGE 117
#SCROLL 1.19658
7
#BPMCHANGE 230
#SCROLL 0.608696
00
#BPMCHANGE 244
#SCROLL 0.57377
0,
,
,
#BPMCHANGE 223
#SCROLL 0.627803
000
#BPMCHANGE 190
#SCROLL 0.736842
0,
#BPMCHANGE 172
#SCROLL 0.813953
8,
,
#END