Files
2025-12-20 15:52:49 -05:00

475 lines
4.9 KiB
Plaintext

TITLE:Regulus
SUBTITLE:--Yuuyu feat. Leo/need / Project SEKAI COLORFUL STAGE!
TITLEJA:レグルス
SUBTITLEJA:ゆうゆ feat. Leo/need 「プロジェクトセカイ カラフルステージ!」より
PREIMAGE:Regulus.png
BGMOVIE:Regulus.mp4
WAVE:Regulus.ogg
BPM:146
OFFSET:0
DEMOSTART:39.246
MAKER:Colin
COURSE:Easy
LEVEL:3
SCOREINIT:
SCOREDIFF:
NOTESDESIGNER0:Colin
#START
,
,
#GOGOSTART
2020,
2,
1011,
1,
#GOGOEND
1010,
1,
2220,
1,
1110,
1011,
5,
8,
40040000,
,
40040000,
,
30003003,
,
1110,
20202005,
,
8400,
#GOGOSTART
1010,
1110,
2020,
2220,
1011,
1010,
3000003000300300,
608
#GOGOEND
0,
#GOGOSTART
2020,
2220,
10010115,
008
#GOGOEND
0,
#GOGOSTART
20020020,
2010,
4004000
#GOGOEND
4,
0404,
#GOGOSTART
30030030,
03003036,
0008,
#GOGOEND
0,
2,
2,
2020,
2,
50000008,
50000084,
,
3600,
0080,
#GOGOSTART
3,
0000000
#GOGOEND
0,
#GOGOSTART
3030,
600
#GOGOEND
8,
#GOGOSTART
1011,
1020,
3000003000300300,
608
#GOGOEND
0,
#GOGOSTART
1010,
1110,
40040406,
008
#GOGOEND
0,
#GOGOSTART
3030,
3030,
40040004,
0
#GOGOEND
000,
#GOGOSTART
30030030,
03003033,
00300300,
30030036,
0000000000
#GOGOEND
080000,
#END
COURSE:Normal
LEVEL:5
SCOREINIT:
SCOREDIFF:
NOTESDESIGNER1:Colin
#START
,
,
#GOGOSTART
2020,
2,
10101011,
1,
#GOGOEND
1110,
1110,
2220,
1010,
1110,
10111010,
5,
8040,
40040000,
,
40040000,
,
3000000030030030,
,
10101110,
20202225,
,
8400,
#GOGOSTART
1110,
10111000,
2020,
20222000,
1111,
1010,
3000003000300300,
608
#GOGOEND
0,
#GOGOSTART
20002022,
2220,
10110115,
008
#GOGOEND
0,
#GOGOSTART
20220020,
20221000,
4044044
#GOGOEND
4,
0404,
#GOGOSTART
30030030,
03003036,
0008,
#GOGOEND
0,
2020,
2,
2220,
2020,
50000008,
50000084,
,
3600,
0080,
#GOGOSTART
3,
0000000
#GOGOEND
0,
#GOGOSTART
30033003,
600
#GOGOEND
8,
#GOGOSTART
10101011,
1120,
3000003000300300,
608
#GOGOEND
0,
#GOGOSTART
10001011,
1110,
40040406,
008
#GOGOEND
0,
#GOGOSTART
3030,
3030,
40440444,
0
#GOGOEND
000,
#GOGOSTART
30330330,
33033033,
03303303,
30330336,
00000
#GOGOEND
800,
#END
COURSE:Hard
LEVEL:5
SCOREINIT:
SCOREDIFF:
NOTESDESIGNER2:Colin
#START
1020200200102000,
1508,
#GOGOSTART
4040,
4044,
6,
8,
#GOGOEND
0000201020220010,
1000202020110020,
5008,
3003003030000000,
3000102010220020,
2000201020110020,
2002001000000010,
1002002050008000,
4004003000001000,
1111,
4004004000001000,
1110,
5000008020020010,
01220202,
1025000000008000,
1015000080001030,
0040404040040040,
00600082,
#GOGOSTART
3001002000202050,
0000000000008011,
1002001000202050,
00008002,
1022001000102050,
80212221,
4000404000400300,
608
#GOGOEND
0,
#GOGOSTART
1022001020010050,
00820222,
1022002000202050,
008
#GOGOEND
2,
#GOGOSTART
4040,
4040,
3003030
#GOGOEND
3,
0404,
#GOGOSTART
30330330,
33033036,
0008,
#GOGOEND
0,
2000000020020020,
20220202,
2000002220000022,
200000000000200020002000200000000200000000000000,
5008,
50000084,
0000404040040030,
0600,
0080,
#GOGOSTART
3,
00222220202202
#GOGOEND
20,
#GOGOSTART
3004003000404060,
000
#GOGOEND
8,
#GOGOSTART
1022001000102020,
00212221,
4000404000400300,
608
#GOGOEND
0,
#GOGOSTART
1022002020010020,
00122221,
2002002000202050,
008
#GOGOEND
2,
#GOGOSTART
4040,
4040,
33330333,
0
#GOGOEND
608,
#GOGOSTART
30330330,
33033033,
03303303,
30330336,
00000
#GOGOEND
800,
#END
COURSE:Oni
LEVEL:8
SCOREINIT:
SCOREDIFF:
NOTESDESIGNER3:Colin
#START
10002000102010200220100020201010,
100000000000400000000200101010100200100000100100,
#GOGOSTART
2000001120000011,
2021021122222211,
2010104010104011,
2002002210120220,
#GOGOEND
1020201020220210,
1000202020210110,
2011201120112012,
1011011010121122,
1010201210102022,
1020201120120220,
4012021120101010,
3020202022222222,
100
#SCROLL 2
000000400000000400
#SCROLL 1
000000020002000200020002000,
100000001000200000002000202020201000100200100000,
#SCROLL 2
400000300400000000400
#SCROLL 1
000000020002000100020001000,
100010001000100010001000202020101010200200100100,
1000002220120030,
0020120210202222,
1022102010121022,
1022102010221030,
0040303012221222,
1608,
#GOGOSTART
3010201202102012,
1022221022221022,
1011201212012022,
1021221112112222,
1010201202102122,
1011201122012010,
4010404010400300,
302122102011
#GOGOEND
2020,
#GOGOSTART
1012021110110112,
1010201212012012,
1012004000112030,
002222021001
#GOGOEND
2010,
#GOGOSTART
4000102210210222,
1010212212111211,
2114114
#GOGOEND
4,
000400211100,
#GOGOSTART
30330330,
33034046,
,
#GOGOEND
800000000000200000000200100100100200100010001000,
2000000020020010,
20120202,
1021212210212122,
100000000100200020002000200010002000000000200000,
2022102010121011,
1022102010121040,
000000400000300000300000200200200200202020202020,
1600,
0000000080002110,
#GOGOSTART
3,
00222210201201
#GOGOEND
20,
#GOGOSTART
3010202221021211,
120120120222
#GOGOEND
1000,
#GOGOSTART
3010201202102122,
1011201122012010,
4010404010400300,
302122102011
#GOGOEND
2020,
#GOGOSTART
1012021110110112,
1010201212012012,
1012004000112030,
002222021001
#GOGOEND
2010,
#GOGOSTART
4000102210210222,
1010212212111211,
21141144,
000
#GOGOEND
400211100,
#GOGOSTART
30430211,
2010201012102010,
2222102222102222,
1201201201102210,
04444
#GOGOEND
400,
#END