generated from DragonRatTiger/Custom-Charts
549 lines
4.9 KiB
Plaintext
549 lines
4.9 KiB
Plaintext
TITLE:SOSORRY!
|
|
SUBTITLE:--ePiaeon feat. Miku Hatsune
|
|
TITLEJA:ゴッゴメン!
|
|
SUBTITLEJA:ePiaeon feat.初音ミク
|
|
PREIMAGE:SOSORRY.jpg
|
|
BGMOVIE:SOSORRY.mp4
|
|
WAVE:SOSORRY.ogg
|
|
BPM:170
|
|
OFFSET:-0.060
|
|
DEMOSTART:94.471
|
|
GENRE:ボーカロイド
|
|
MAKER:Colin
|
|
|
|
|
|
COURSE:Easy
|
|
LEVEL:3
|
|
NOTESDESIGNER0:Colin
|
|
|
|
#START
|
|
,
|
|
22,
|
|
2,
|
|
2022,
|
|
22,
|
|
2,
|
|
2,
|
|
22,
|
|
2,
|
|
1,
|
|
1,
|
|
11,
|
|
1,
|
|
1,
|
|
1,
|
|
11,
|
|
1,
|
|
4,
|
|
22,
|
|
2022,
|
|
22,
|
|
2,
|
|
2,
|
|
22,
|
|
2,
|
|
11,
|
|
1110,
|
|
11,
|
|
1,
|
|
11,
|
|
1111,
|
|
11,
|
|
1,
|
|
4,
|
|
22,
|
|
2022,
|
|
2,
|
|
22,
|
|
2220,
|
|
20002005,
|
|
08,
|
|
#GOGOSTART
|
|
33,
|
|
3,
|
|
10010005,
|
|
08,
|
|
11,
|
|
1110,
|
|
1011,
|
|
#GOGOEND
|
|
0,
|
|
42,
|
|
2220,
|
|
22,
|
|
2,
|
|
2,
|
|
2,
|
|
22,
|
|
25,
|
|
00000008,
|
|
,
|
|
1,
|
|
11,
|
|
11,
|
|
1,
|
|
2,
|
|
22,
|
|
20002005,
|
|
08,
|
|
#GOGOSTART
|
|
33,
|
|
3,
|
|
10010005,
|
|
08,
|
|
11,
|
|
1110,
|
|
1000101
|
|
#GOGOEND
|
|
0,
|
|
#GOGOSTART
|
|
5
|
|
#GOGOEND
|
|
0
|
|
#GOGOSTART
|
|
0
|
|
#GOGOEND
|
|
0
|
|
#GOGOSTART
|
|
8
|
|
#GOGOEND
|
|
0
|
|
#GOGOSTART
|
|
0
|
|
#GOGOEND
|
|
0,
|
|
#GOGOSTART
|
|
42,
|
|
2220,
|
|
20002005,
|
|
08,
|
|
22,
|
|
2220,
|
|
20002005,
|
|
008
|
|
#GOGOEND
|
|
0,
|
|
#GOGOSTART
|
|
11,
|
|
1110,
|
|
11,
|
|
1,
|
|
11,
|
|
1110,
|
|
11,
|
|
1110,
|
|
#GOGOEND
|
|
20002002,
|
|
,
|
|
22,
|
|
2220,
|
|
20002002,
|
|
,
|
|
22,
|
|
2220,
|
|
#END
|
|
|
|
COURSE:Normal
|
|
LEVEL:5
|
|
NOTESDESIGNER1:Colin
|
|
|
|
#START
|
|
,
|
|
22,
|
|
2220,
|
|
20002022,
|
|
2220,
|
|
22,
|
|
2220,
|
|
20002022,
|
|
2220,
|
|
11,
|
|
1110,
|
|
11,
|
|
1110,
|
|
11,
|
|
1110,
|
|
11,
|
|
1,
|
|
42,
|
|
2022,
|
|
20002022,
|
|
2220,
|
|
22,
|
|
2022,
|
|
2022,
|
|
2,
|
|
11,
|
|
1110,
|
|
10001011,
|
|
1110,
|
|
11,
|
|
10101011,
|
|
1111,
|
|
1,
|
|
42,
|
|
22,
|
|
20222020,
|
|
22,
|
|
22,
|
|
2220,
|
|
20002005,
|
|
08,
|
|
#GOGOSTART
|
|
33,
|
|
3,
|
|
10010105,
|
|
08,
|
|
10111010,
|
|
1110,
|
|
10111010,
|
|
#GOGOEND
|
|
0,
|
|
40002022,
|
|
2220,
|
|
2022,
|
|
22,
|
|
2022,
|
|
22,
|
|
2222,
|
|
25,
|
|
00000008,
|
|
,
|
|
11,
|
|
1011,
|
|
11,
|
|
1,
|
|
22,
|
|
2220,
|
|
20002005,
|
|
08,
|
|
#GOGOSTART
|
|
33,
|
|
31,
|
|
10010105,
|
|
08,
|
|
10001011,
|
|
1110,
|
|
1010101
|
|
#GOGOEND
|
|
0,
|
|
#GOGOSTART
|
|
5
|
|
#GOGOEND
|
|
0
|
|
#GOGOSTART
|
|
0
|
|
#GOGOEND
|
|
0
|
|
#GOGOSTART
|
|
8
|
|
#GOGOEND
|
|
0
|
|
#GOGOSTART
|
|
0
|
|
#GOGOEND
|
|
0,
|
|
#GOGOSTART
|
|
40002022,
|
|
2220,
|
|
20002025,
|
|
08,
|
|
2220,
|
|
20222020,
|
|
20002025,
|
|
008
|
|
#GOGOEND
|
|
0,
|
|
#GOGOSTART
|
|
10101011,
|
|
1110,
|
|
10101011,
|
|
1110,
|
|
10001011,
|
|
1110,
|
|
10101011,
|
|
1110,
|
|
#GOGOEND
|
|
20002002,
|
|
,
|
|
22,
|
|
2220,
|
|
20002002,
|
|
,
|
|
22,
|
|
2220,
|
|
#END
|
|
|
|
COURSE:Hard
|
|
LEVEL:6
|
|
NOTESDESIGNER2:Colin
|
|
|
|
#START
|
|
,
|
|
30211012,
|
|
02010121,
|
|
00201122,
|
|
3333,
|
|
30210121,
|
|
0010001000102011,
|
|
11202021,
|
|
30303002,
|
|
2012,
|
|
100001100100,
|
|
1022,
|
|
1222,
|
|
100000200002,
|
|
2222,
|
|
1122,
|
|
11,
|
|
3000200010002011,
|
|
11201120,
|
|
1000200010102011,
|
|
1212,
|
|
1000202220102010,
|
|
0010201000102011,
|
|
10201122,
|
|
1000200010102011,
|
|
10301120,
|
|
1000201110102000,
|
|
10201120,
|
|
10201212,
|
|
1000202220102010,
|
|
20212020,
|
|
11221122,
|
|
10212020,
|
|
5008,
|
|
10120020,
|
|
1020202010002011,
|
|
10210020,
|
|
10210212,
|
|
01050080,
|
|
01212125,
|
|
08,
|
|
#GOGOSTART
|
|
3000201000102011,
|
|
11222010,
|
|
20120205,
|
|
08,
|
|
1000201110102020,
|
|
01210221,
|
|
22121222,
|
|
#GOGOEND
|
|
0,
|
|
30212125,
|
|
08,
|
|
1002001020020020,
|
|
50008012,
|
|
1002001020102020,
|
|
0020102000102011,
|
|
102201102202,
|
|
5850,
|
|
0008,
|
|
,
|
|
3202,
|
|
0202,
|
|
1202,
|
|
0202,
|
|
10200120,
|
|
10201120,
|
|
1111,
|
|
4444,
|
|
#GOGOSTART
|
|
3000201000102011,
|
|
11222010,
|
|
20120205,
|
|
08,
|
|
1000201110102020,
|
|
01210221,
|
|
2212122
|
|
#GOGOEND
|
|
2,
|
|
#GOGOSTART
|
|
5
|
|
#GOGOEND
|
|
0
|
|
#GOGOSTART
|
|
0
|
|
#GOGOEND
|
|
0
|
|
#GOGOSTART
|
|
0
|
|
#GOGOEND
|
|
0
|
|
#GOGOSTART
|
|
8
|
|
#GOGOEND
|
|
0,
|
|
#GOGOSTART
|
|
30201121,
|
|
0011101020002000,
|
|
10210125,
|
|
00801222,
|
|
10210121,
|
|
0011102020002000,
|
|
1010202010111050,
|
|
008
|
|
#GOGOEND
|
|
0,
|
|
#GOGOSTART
|
|
30201122,
|
|
1000102010222020,
|
|
1000200011102220,
|
|
10201122,
|
|
1000201110102020,
|
|
01212211,
|
|
1011100020222000,
|
|
12121212,
|
|
#GOGOEND
|
|
10011001,
|
|
10101012,
|
|
10011001,
|
|
10101012,
|
|
10011001,
|
|
10101212,
|
|
10011001,
|
|
10101012,
|
|
#END
|
|
|
|
COURSE:Oni
|
|
LEVEL:9
|
|
NOTESDESIGNER3:Colin
|
|
|
|
#START
|
|
00000002,
|
|
3000201210112210,
|
|
1021201110112012,
|
|
1010201122112020,
|
|
1022112010221210,
|
|
1000201120212020,
|
|
1011221210112020,
|
|
1111202011112020,
|
|
323232
|
|
#SCROLL 1.2
|
|
40,
|
|
#SCROLL 1.5
|
|
300
|
|
#SCROLL 1
|
|
000002000200020002000100010002000100020002000,
|
|
111222111212,
|
|
112212122122,
|
|
122111202201,
|
|
222122112111,
|
|
211222122112,
|
|
122122122112,
|
|
11,
|
|
3000201020102220,
|
|
1001201010112010,
|
|
1022201011221010,
|
|
2011201020112010,
|
|
3000201110112010,
|
|
1021221120201020,
|
|
1111202022112020,
|
|
1011202022112022,
|
|
1000
|
|
#SCROLL 2
|
|
30
|
|
#SCROLL 1
|
|
0010112020,
|
|
1021201110122020,
|
|
1010201212122010,
|
|
2011201020112020,
|
|
3010201120222010,
|
|
2011201112022020,
|
|
1211201022112012,
|
|
2011201020112020,
|
|
3000201110102010,
|
|
1000201011102010,
|
|
1022202010222020,
|
|
1000201011022020,
|
|
1010201211102011,
|
|
1010201110102011,
|
|
1022202010112020,
|
|
1011221020212020,
|
|
#GOGOSTART
|
|
3021201010112010,
|
|
1012202010121020,
|
|
1022201011112020,
|
|
1012121122112020,
|
|
3011202022112020,
|
|
1011202120112210,
|
|
3011202030222020,
|
|
#GOGOEND
|
|
3212,
|
|
3010201110102010,
|
|
1011201010222020,
|
|
1012022010110120,
|
|
50008012,
|
|
1022021020112010,
|
|
0010201212102000,
|
|
202022202020101010202011,
|
|
111111500000,
|
|
000000000008,
|
|
,
|
|
30201120,
|
|
10201120,
|
|
1000201110102010,
|
|
10201122,
|
|
1000201110102010,
|
|
1000202010102011,
|
|
1000201010112020,
|
|
41414141,
|
|
#GOGOSTART
|
|
#SCROLL 2
|
|
3
|
|
#SCROLL 1
|
|
021201010112010,
|
|
1012202010121020,
|
|
1022201011112020,
|
|
1012121122112020,
|
|
3011202022112020,
|
|
1011202120112210,
|
|
30112020302220
|
|
#GOGOEND
|
|
20,
|
|
#GOGOSTART
|
|
6
|
|
#GOGOEND
|
|
0
|
|
#GOGOSTART
|
|
0
|
|
#GOGOEND
|
|
0
|
|
#GOGOSTART
|
|
0
|
|
#GOGOEND
|
|
0
|
|
#GOGOSTART
|
|
8
|
|
#GOGOEND
|
|
0,
|
|
#GOGOSTART
|
|
3011221121012101,
|
|
1010202120220210,
|
|
1022202110210110,
|
|
1012112210122020,
|
|
1021212211112212,
|
|
1011202010220210,
|
|
1012202010112050,
|
|
000
|
|
#GOGOEND
|
|
8,
|
|
#GOGOSTART
|
|
3012102010122030,
|
|
0020101210212020,
|
|
3021202022112010,
|
|
1011202012022022,
|
|
1012102010122030,
|
|
0020121210212020,
|
|
1121202012112010,
|
|
4011221121012020,
|
|
#GOGOEND
|
|
1000201010102210,
|
|
1000221110201020,
|
|
1020201022221010,
|
|
2010201020221020,
|
|
1010201022112010,
|
|
1011221210201020,
|
|
1122201211222020,
|
|
12121210,
|
|
#END |