Files
2025-12-20 15:52:49 -05:00

334 lines
3.6 KiB
Plaintext
Raw Permalink Blame History

This file contains ambiguous Unicode characters
This file contains Unicode characters that might be confused with other characters. If you think that this is intentional, you can safely ignore this warning. Use the Escape button to reveal them.
TITLE:Samsa
SUBTITLE:--teniwoha feat. Nightcord at 25:00 / Project SEKAI COLORFUL STAGE!
TITLEJA:ザムザ
SUBTITLEJA:てにをは feat. 25時、ナイトコードで。「プロジェクトセカイ カラフルステージ!」より
PREIMAGE:Samsa.png
BGMOVIE:Samsa.mp4
BPM:120.877
OFFSET:-0.806
DEMOSTART:59.626
WAVE:Samsa.ogg
MAKER:Colin
COURSE:Oni
LEVEL:8
BALLOON:
SCOREINIT:
SCOREDIFF:
NOTESDESIGNER3:Colin
#START
2012021010210202,
1212020211120010,
2012021010120202,
1012020212221020,
1102210121010202,
1012011120020102,
1101221112010112,
1122012212110122,
1012021112020121,
2102012210020101,
2011210210120222,
12124030,
#GOGOSTART
4012021010120201,
200200200100000100002020100000100100200100100100,
1012021010120202,
100000200100000100202020100000200
#GOGOEND
100000000000000,
1120112211210121,
1012010210120222,
1121121110120222,
1112010210121222,
1021120120120202,
1012010120120000,
2111211120120201,
1010201210221210,
1201201212012012,
1201201201201200,
1201201212012012,
1200120012001012,
10200010200010200010200010200222,
100000200200100200101010200000100200100000100
#GOGOSTART
200,
0010201200202020,
1201201202102021,
1010201202102010,
2020220200102121,
1010202100102010,
1201201202101201,
2010202110120020,
30303034
#GOGOEND
02102101,
0010201200201021,
0020102100002021,
0000202100001012,
0000202100002202,
1010202100001010,
#GOGOSTART
2011202010112210,
2010202210120020,
3030303030340222,
#GOGOEND
1011201010210020,
11210000,
#GOGOSTART
2012021010120201,
200200200100000100002020100000100100200100100100,
1012021010120202,
1021012210121020,
1012021010120201,
200100100200000100202020100000100100200100100100,
1012021010120202,
1021012210210101,
#GOGOEND
1,
#END
COURSE:Hard
LEVEL:5
BALLOON:
SCOREINIT:
SCOREDIFF:
NOTESDESIGNER2:Colin
#START
2022020220220000,
2022022020220000,
2022020220220000,
2022020220000000,
1102200011102000,
1000201110102000,
1010200011102000,
11201120,
1011001020020000,
1002000010020000,
1000200010020000,
1233,
#GOGOSTART
3000200010220200,
1110100010002000,
1022020010001110,
10102000100
#GOGOEND
10000,
1110100010002000,
10201120,
1110200010102000,
1000200010102220,
10201120,
10211020,
1010201110010000,
12121010,
1101101158058058,
1101101105805800,
1101101158058058,
1100110011001000,
20202220,
302202022000000
#GOGOSTART
1,
0010202200201020,
1010200100102011,
0010202200002010,
1010110100102021,
0010202200201020,
1101101101002200,
11221121,
30303004
#GOGOEND
00102022,
0202,
0202,
0202,
0200,
3030,
#GOGOSTART
3030,
1010202010220010,
3030303030030000,
#GOGOEND
2020,
2,
#GOGOSTART
1010200011102000,
1010200011102000,
1010200011102000,
1010200022202000,
20001011,
2222,
1010200011102000,
1010200011101111,
#GOGOEND
0,
#END
COURSE:Normal
LEVEL:3
BALLOON:9
SCOREINIT:
SCOREDIFF:
NOTESDESIGNER1:Colin
#START
2020,
2,
2020,
2,
1010,
1,
1010,
1,
1010,
1,
1010,
1040,
#GOGOSTART
10111000,
10111000,
20222000,
20002020200
#GOGOEND
00000,
1020,
1010,
1020,
1020,
1010,
1020,
1020,
1010,
5858,
5858,
5858,
3332,
,
300000000000000
#GOGOSTART
0,
10101110,
1010,
20102022,
2020,
1210,
1210,
2120,
21
#GOGOEND
20,
20222020,
2020,
2220,
2020,
10111010,
#GOGOSTART
1010,
10111010,
1010,
#GOGOEND
1020,
1010,
#GOGOSTART
7080,
2011,
20001110,
2011,
2010,
20001110,
1010,
1020,
#GOGOEND
0,
#END
COURSE:Easy
LEVEL:1
BALLOON:4
SCOREINIT:
SCOREDIFF:
NOTESDESIGNER0:Colin
#START
2,
2,
2,
2,
1,
1,
1,
1,
1,
1,
1,
1040,
#GOGOSTART
1110,
1110,
2220,
20002000200
#GOGOEND
00000,
1,
1010,
1,
1,
1010,
1,
1,
1,
5858,
5858,
5858,
3332,
,
300000000000000
#GOGOSTART
0,
1010,
1,
2020,
2,
1010,
1,
2020,
20
#GOGOEND
00,
2020,
2,
2020,
2,
1010,
#GOGOSTART
1,
1010,
1,
#GOGOEND
1020,
1010,
#GOGOSTART
7080,
2,
2,
2,
2,
2,
1,
1,
#GOGOEND
0,
#END