Files
2025-12-20 15:52:49 -05:00

404 lines
3.9 KiB
Plaintext

TITLE:Shadow Shadow
SUBTITLE:--Azari feat. flower
TITLEJA:Shadow Shadow
SUBTITLEJA:Azari feat. flower
PREIMAGE:Shadow Shadow.jpg
BGMOVIE:Shadow Shadow.mp4
WAVE:Shadow Shadow.ogg
BPM:135
OFFSET:-2.686
DEMOSTART:21.797
GENRE:ボーカロイド
MAKER:Colin
COURSE:Easy
LEVEL:3
SCOREINIT:
SCOREDIFF:
NOTESDESIGNER0:Colin
#START
1,
1,
1,
1010,
1,
1010,
1,
2,
2,
2020,
2,
3010,
1110,
1010,
1,
2020,
2220,
2020,
2,
1010,
1110,
1010,
1,
2020,
2220,
2020,
2,
3,
,
2020,
2,
2020,
2,
1010,
1,
1010,
1,
1110,
1010,
1,
1010,
1,
2,
2020,
5080,
1110,
1110,
1010,
1,
2220,
2220,
2020,
2,
1010,
1110,
1010,
1,
2020,
2220,
2020,
2,
1010,
1110,
1010,
1,
2020,
2220,
2020,
2,
2,
2,
2,
2,
2,
2,
2,
,
#END
COURSE:Normal
LEVEL:3
SCOREINIT:
SCOREDIFF:
NOTESDESIGNER1:Colin
#START
1,
1,
1010,
10001011,
1,
1010,
1110,
2020,
20222000,
2020,
2,
3110,
10111000,
1110,
1110,
20222000,
2220,
2020,
2220,
1010,
10111000,
1010,
10111000,
2020,
20222000,
2020,
2,
3,
,
20022000,
2020,
20022000,
2,
10011000,
1011,
1010,
1,
10101011,
1011,
10001011,
1010,
1010,
20002022,
2022,
5080,
10101011,
1110,
10101011,
1110,
20202022,
2220,
20002022,
2220,
10001011,
1110,
10001011,
1110,
20002022,
2220,
20002022,
2220,
1011,
10111000,
10001011,
1110,
20002022,
2220,
2020,
20222020,
2,
2020,
2,
2220,
2020,
2,
2,
20020000,
#END
COURSE:Hard
LEVEL:4
BALLOON:8
SCOREINIT:
SCOREDIFF:
NOTESDESIGNER2:Colin
#START
10210220,
10210020,
10210220,
10210020,
10210220,
10210020,
10210220,
10210020,
10210220,
10210000,
,
1010200110102020,
1000201010002011,
11201122,
10201120,
11222012,
1011101010000010,
10120222,
10210122,
1010202220002010,
11212002,
12222011,
2022201020000010,
22212012,
12112001,
1000102000222020,
1000201000222020,
3,
,
12101010,
12121010,
12101010,
12121010,
12101010,
12121010,
12101010,
12121000,
1010201110102020,
10201122,
10201122,
10201122,
10201122,
10201122,
1222,
70008011,
22112211,
22112002,
12122211,
22111001,
22112211,
22112001,
22220211,
1000201000222020,
1010200110102020,
1000201010002011,
11201122,
10201120,
11222012,
1011101010000010,
10120222,
10210122,
1010202220002010,
11212002,
12222011,
2022201020000010,
22212012,
12112001,
1000102000222020,
1000201000222020,
3202,
0202,
0202,
0202,
0202,
0202,
00000002,
10210000,
#END
COURSE:Oni
LEVEL:7
SCOREINIT:
SCOREDIFF:
NOTESDESIGNER3:Colin
#START
10210220,
10210020,
10210222,
11212021,
11222022,
12122022,
11212021,
22212021,
12212021,
10120122,
10210012,
#GOGOSTART
3020112010122020,
1022201020112020,
1020121020221010,
2021201020112010,
2010102010222020,
1022201020112020,
1010201210102040,
30004030001120
#GOGOEND
20,
#GOGOSTART
3020112010212010,
2021201020112020,
1020121020221010,
2021201020112010,
2010102010222020,
1022201020112020,
1010201210102040,
3000403000112020,
#MEASURE 1/16
#GOGOEND
#SCROLL 2
3,
#SCROLL 1.9375
,
#SCROLL 1.875
,
#SCROLL 1.8125
,
#SCROLL 1.75
,
#SCROLL 1.6875
,
#SCROLL 1.625
,
#SCROLL 1.5625
,
#SCROLL 1.5
,
#SCROLL 1.4375
,
#SCROLL 1.375
,
#SCROLL 1.3125
,
#SCROLL 1.25
,
#SCROLL 1.1875
,
#SCROLL 1.125
,
#SCROLL 1.0625
,
#MEASURE 4/4
#SCROLL 1
12021022,
40002200200020002000200020001000,
20002200200020001000200020002000,
20002200100010001000200010002000,
01222211,
10002200100020001000100020002000,
20002200100020002000200010002000,
20002200100020001000100010002000,
1000102010010010,
400000222200100100200200,
21211212,
222200222200200200200200,
22112211,
111100222200100200100200,
11212222,
2002002010101020,
50000822,
#GOGOSTART
32112211,
2020201020221010,
22112211,
200200100200100111100100,
22112211,
2020101020112010,
200200200100222200100200,
10002010001120
#GOGOEND
20,
#GOGOSTART
3020112010122020,
1022201020112020,
1020121020221010,
2021201020112010,
2010102010222020,
1022201020112020,
1010201210102040,
30004030001120
#GOGOEND
20,
#GOGOSTART
3020112010122020,
1022201020112020,
1020121020221010,
2021201020112010,
2010102010222020,
1022201020112020,
1010201210102040,
3000403000112020,
#GOGOEND
10221022,
21212001,
2002202010022010,
22212002,
22212022,
12212001,
10120002,
10210000,
#END