Files
2025-12-20 15:52:49 -05:00

265 lines
3.4 KiB
Plaintext
Raw Permalink Blame History

This file contains ambiguous Unicode characters
This file contains Unicode characters that might be confused with other characters. If you think that this is intentional, you can safely ignore this warning. Use the Escape button to reveal them.
TITLE:Starry sky melody
SUBTITLE:--PolyphonicBranch feat. Wonderlands×Showtime / Project SEKAI COLORFUL STAGE!
TITLEJA:星空のメロディー
SUBTITLEJA:ぽりふぉ feat. ワンダーランズ×ショウタイム 「プロジェクトセカイ カラフルステージ!」より
PREIMAGE:Starry sky melody.png
BGMOVIE:Starry sky melody.mp4
WAVE:Starry sky melody.ogg
BPM:113
OFFSET:-0.055
DEMOSTART:58.462
MAKER:Colin
COURSE:Easy
LEVEL:1
BALLOON:14
SCOREINIT:
SCOREDIFF:
NOTESDESIGNER0:Colin
#START
2220,
1010,
2220,
1110,
#GOGOSTART
1210,
1210,
2020,
2220,
1020,
1210,
1020,
#GOGOEND
10101110,
2220,
2220,
2020,
2220,
1010,
1110,
2020,
2220,
50081000,
1011,
50008111,
05008000,
2020,
2222,
1010,
1,
#GOGOSTART
1110,
2220,
1210,
1210,
1020,
1212,
1020,
1211,
1201,
2011,
1020,
1210,
1210,
1110,
2220,
1111,
#GOGOEND
2,
2020,
2,
20202027,
0008,
#END
COURSE:Normal
LEVEL:2
BALLOON:14
SCOREINIT:
SCOREDIFF:
NOTESDESIGNER1:Colin
#START
2220,
1010,
20222020,
1110,
#GOGOSTART
11201020,
10201120,
20222020,
2220,
10112010,
10201110,
10222010,
#GOGOEND
1000100010100100,
20222020,
20222020,
20202220,
20202220,
10201022,
10101210,
2220,
20222020,
50081010,
10001110,
50008111,
05008000,
20222020,
20222020,
1111,
1,
#GOGOSTART
10111010,
22202022,
10201011,
10201011,
10002011,
1212,
10112000,
11201110,
10201110,
20101110,
10112010,
11201010,
11201010,
11101010,
20222020,
10101112,
#GOGOEND
2020,
2020,
2020,
20202027,
0008,
#END
COURSE:Hard
LEVEL:3
BALLOON:14
SCOREINIT:
SCOREDIFF:
NOTESDESIGNER2:Colin
#START
2002002002001010,
0020110010010000,
2002002002001000,
11111122,
#GOGOSTART
1001102010201000,
1002201020001020,
1001001000100020,
12021222,
0010102000201111,
1002001000101020,
0010102000201110,
#GOGOEND
2200220020200200,
1020022010002000,
1022010020000222,
2000101011011000,
2000200220220200,
1010201110202000,
1000200010222001,
0110100020001110,
2220200020010220,
5000800010110010,
1050008020220020,
50822222,
05008000,
1000100011010000,
2222,
20220225,
00080000,
#GOGOSTART
1011002010202020,
12220221,
00110221,
0010002010202001,
00022220,
1020102020202001,
02021121,
00001202,
1001102010202020,
21120112,
00210221,
0020001010102002,
0000001020202002,
01110222,
0000003030030030,
03030334,
#GOGOEND
2002002002002020,
0020200020020000,
2002002002002020,
22222227,
0008,
#END
COURSE:Oni
LEVEL:8
BALLOON:8
SCOREINIT:
SCOREDIFF:
NOTESDESIGNER3:Colin
#START
2012002012011010,
1020210210110000,
2012002012011010,
200000101010200000100000200200100100200200202020,
#GOGOSTART
2012012011201020,
1021021010101120,
2012012010201120,
1012012011107000,
8011102000202211,
2012021010221120,
1022112010201122,
#GOGOEND
1101210020200222,
1201122102021012,
2121120202012212,
2021222022021002,
1212120210122200,
1221220222202000,
1221201110222001,
0212112122111110,
1122111122211222,
2011201010210120,
1022102210220120,
1022101010202020,
1012011222121222,
1221221112021112,
1011202210112020,
200200202020200200202020200200202020200200202020,
101010100100100100202020100000200000100200000000,
#GOGOSTART
3021012010201120,
1020212010221120,
1022101011202010,
100000200200100100200000100100200000100000202020,
1021012211201202,
1022102010221020,
1021012010102010,
200000100100200200200200100200201010200200100200,
1021012010201120,
1020212010221120,
1022101011202010,
100000200200100100200000100100200000100000202020,
1021012021202021,
0012102010221020,
1021003030030040,
04040333,
#GOGOEND
2012002012011010,
0020210210110000,
2021002021011010,
200000101010200000200000200200100100200200202020,
,
#END