generated from DragonRatTiger/Custom-Charts
575 lines
6.4 KiB
Plaintext
575 lines
6.4 KiB
Plaintext
// PeepoDrumKit 2023/10/28
|
||
TITLE:TONDEMO-WONDERZ
|
||
TITLEJA:トンデモワンダーズ
|
||
SUBTITLE:--sasakure.UK feat. Wonderlands×Showtime / Project SEKAI COLORFUL STAGE!
|
||
SUBTITLEJA:sasakure.UK feat. ワンダーランズ×ショウタイム 「プロジェクトセカイ カラフルステージ!」より
|
||
BPM:172
|
||
WAVE:TONDEMO-WONDERZ.ogg
|
||
PREIMAGE:TONDEMO-WONDERZ.png
|
||
OFFSET:-0.007
|
||
DEMOSTART:80.627
|
||
MAKER:Colin
|
||
SEVOL:54
|
||
BGMOVIE:TONDEMO-WONDERZ.mp4
|
||
|
||
COURSE:Edit
|
||
LEVEL:10
|
||
SCOREINIT:
|
||
SCOREDIFF:
|
||
NOTESDESIGNER4:Colin
|
||
|
||
#START
|
||
4011101010400040,
|
||
0022104011112030,
|
||
2022203022203022,
|
||
200000300000200200200000400000004000000040000000,
|
||
1011202021201010,
|
||
1122101101201020,
|
||
2022102012101020,
|
||
1022102011201020,
|
||
1011201022102010,
|
||
1222201011021020,
|
||
1022102012102020,
|
||
1011201022112210,
|
||
41222222,
|
||
01011222,
|
||
2002002000202010,
|
||
3333,
|
||
41122112,
|
||
02111242,
|
||
2020121220220110,
|
||
2020202020210120,
|
||
1222122212221222,
|
||
122212222000
|
||
#BARLINEOFF
|
||
#SCROLL 4
|
||
4
|
||
#BARLINEON
|
||
#SCROLL 1
|
||
000,
|
||
#GOGOSTART
|
||
1101202210111040,
|
||
0011201010121112,
|
||
2011201020221010,
|
||
1020110120222220,
|
||
2021201010112030,
|
||
0021202010121022,
|
||
1111212122112120,
|
||
1222111111221220,
|
||
1021102111204030,
|
||
0020102210121111,
|
||
2011201110201010,
|
||
1022121210222220,
|
||
1022101210102020,
|
||
0022101010121020,
|
||
2020112012202010,
|
||
2211202022221110,
|
||
44434343,
|
||
44443040,
|
||
#MEASURE 3/4
|
||
#GOGOEND
|
||
#BPMCHANGE 180
|
||
401211202010,
|
||
401210102010,
|
||
401211202010,
|
||
401210102010,
|
||
222222222222,
|
||
112211221111,
|
||
122112022102,
|
||
#MEASURE 17/4
|
||
303030303030303030303030000000000000000000
|
||
#BPMCHANGE 178
|
||
000000000,
|
||
#MEASURE 4/4
|
||
#BPMCHANGE 172
|
||
12221122,
|
||
0021202020200020,
|
||
22221211,
|
||
1020400000222220,
|
||
11221112,
|
||
01220202,
|
||
30030004,
|
||
04440400,
|
||
#MEASURE 3/4
|
||
00000000
|
||
#BARLINEOFF
|
||
#SCROLL 4
|
||
4
|
||
#BARLINEON
|
||
#SCROLL 1
|
||
000,
|
||
#MEASURE 4/4
|
||
#GOGOSTART
|
||
0,
|
||
,
|
||
,
|
||
,
|
||
,
|
||
,
|
||
,
|
||
,
|
||
,
|
||
,
|
||
,
|
||
,
|
||
,
|
||
,
|
||
,
|
||
,
|
||
,
|
||
,
|
||
,
|
||
,
|
||
,
|
||
,
|
||
#GOGOEND
|
||
0,
|
||
,
|
||
,
|
||
#MEASURE 9/4
|
||
000000000,
|
||
,
|
||
#END
|
||
|
||
COURSE:Oni
|
||
LEVEL:8
|
||
BALLOON:4,2
|
||
SCOREINIT:
|
||
SCOREDIFF:
|
||
NOTESDESIGNER3:Colin
|
||
|
||
#START
|
||
41111404,
|
||
0012104070008012,
|
||
1210201210201210,
|
||
200000100000100100200000300000000300000030000000,
|
||
1022102011201020,
|
||
1122102100201020,
|
||
1022102011201020,
|
||
1022102050000080,
|
||
1022102011201020,
|
||
1212102011202010,
|
||
1022102011201020,
|
||
1120102050000080,
|
||
21112111,
|
||
21112111,
|
||
2002005080202020,
|
||
4444,
|
||
21112111,
|
||
21112278,
|
||
1020121210020020,
|
||
1020102010010050,
|
||
,
|
||
000000008000
|
||
#BARLINEOFF
|
||
#SCROLL 2
|
||
4
|
||
#BARLINEON
|
||
#SCROLL 1
|
||
000,
|
||
#GOGOSTART
|
||
1001200210102020,
|
||
0022105000008010,
|
||
2010202010221020,
|
||
11500080,
|
||
1012102010102050,
|
||
8022105000801012,
|
||
12012216,
|
||
83368608,
|
||
1011201211102020,
|
||
0022105000008010,
|
||
2010202010221020,
|
||
11500080,
|
||
1012102010102050,
|
||
8022105000801012,
|
||
1020101120201020,
|
||
33336008,
|
||
32232232,
|
||
32323232,
|
||
#GOGOEND
|
||
#BPMCHANGE 180
|
||
3011212011103012,
|
||
1120121030111020,
|
||
1010301211201010,
|
||
5,
|
||
,
|
||
#MEASURE 9/4
|
||
000800300030003000300030003000300030003000300030003000,
|
||
500000
|
||
#BPMCHANGE 178
|
||
800,
|
||
#MEASURE 4/4
|
||
#BPMCHANGE 172
|
||
12121125,
|
||
8022102010201022,
|
||
1020102210201020,
|
||
1022500000008000,
|
||
11211125,
|
||
00000082,
|
||
32230226,
|
||
83368600,
|
||
#MEASURE 3/4
|
||
80000000
|
||
#BARLINEOFF
|
||
#SCROLL 2
|
||
4
|
||
#BARLINEON
|
||
#SCROLL 1
|
||
000,
|
||
#MEASURE 4/4
|
||
#GOGOSTART
|
||
1021202210102020,
|
||
0022105000008010,
|
||
2010202010221020,
|
||
11500080,
|
||
1012102010102050,
|
||
8022105000801012,
|
||
12012216,
|
||
83368608,
|
||
1011201211102020,
|
||
0022105000008010,
|
||
2010202010221020,
|
||
11500080,
|
||
1012102010102050,
|
||
8022105000801012,
|
||
1020101120201020,
|
||
33336008,
|
||
32232232,
|
||
32323232,
|
||
32232232,
|
||
32323232,
|
||
32232232,
|
||
32326000,
|
||
#GOGOEND
|
||
82222202,
|
||
0022202020202012,
|
||
1010201210201210,
|
||
#MEASURE 9/4
|
||
200000000000100000000000100000000000200000000000300000000000000030000000000000003000000000000000300000000000000300000000000000300000000000000300000000000000300000000000000300000000000000300000000000000300000000000000,
|
||
300000000000040000000000000000000000000000000000000000000000000000000000,
|
||
#END
|
||
|
||
COURSE:Hard
|
||
LEVEL:5
|
||
BALLOON:30
|
||
SCOREINIT:
|
||
SCOREDIFF:
|
||
NOTESDESIGNER2:Colin
|
||
|
||
#START
|
||
1011102010200020,
|
||
0011102010001030,
|
||
00030030,
|
||
0030000030030030,
|
||
12101210,
|
||
12101210,
|
||
12101210,
|
||
2222,
|
||
12101210,
|
||
12101210,
|
||
12101210,
|
||
2222,
|
||
1414,
|
||
10401111,
|
||
3003003000303030,
|
||
3333,
|
||
1414,
|
||
1414,
|
||
2222,
|
||
2222,
|
||
20202222,
|
||
2220,
|
||
#GOGOSTART
|
||
1011100010101020,
|
||
01120100,
|
||
2000200020002022,
|
||
22500008,
|
||
1011100010101020,
|
||
01120100,
|
||
2000200020002022,
|
||
22250008,
|
||
1011100010101020,
|
||
01120100,
|
||
2000200020002022,
|
||
22500008,
|
||
1011100010101020,
|
||
01120100,
|
||
2000200020002022,
|
||
22222220,
|
||
30030030,
|
||
03003030,
|
||
#GOGOEND
|
||
#BPMCHANGE 180
|
||
11201011,
|
||
20101120,
|
||
11201011,
|
||
20101120,
|
||
11201011,
|
||
#MEASURE 9/4
|
||
205000000000000008,
|
||
000000
|
||
#BPMCHANGE 178
|
||
00
|
||
#BPMCHANGE 178
|
||
0,
|
||
#MEASURE 4/4
|
||
#BPMCHANGE 172
|
||
12121021,
|
||
10121020,
|
||
1111,
|
||
1508,
|
||
12102020,
|
||
12102020,
|
||
20020002,
|
||
00020000,
|
||
#MEASURE 3/4
|
||
000,
|
||
#MEASURE 4/4
|
||
1011100010101020,
|
||
01120100,
|
||
2000200020002022,
|
||
22500008,
|
||
#GOGOSTART
|
||
1011100010101020,
|
||
01120100,
|
||
2000200020002022,
|
||
22250008,
|
||
1011100010101020,
|
||
01120100,
|
||
2000200020002022,
|
||
22500008,
|
||
1011100010101020,
|
||
01120100,
|
||
2000200020002022,
|
||
2020202050082000,
|
||
30030030,
|
||
03003030,
|
||
30030030,
|
||
0333,
|
||
30030030,
|
||
03003030,
|
||
#GOGOEND
|
||
10000002,
|
||
00000003,
|
||
00030030,
|
||
#MEASURE 9/4
|
||
030070000000000000,
|
||
008400000000000000,
|
||
#END
|
||
|
||
COURSE:Normal
|
||
LEVEL:4
|
||
BALLOON:10
|
||
SCOREINIT:
|
||
SCOREDIFF:
|
||
NOTESDESIGNER1:Colin
|
||
|
||
#START
|
||
30000303,
|
||
00000005,
|
||
0000085000085000,
|
||
8500000830030030,
|
||
1210,
|
||
1210,
|
||
1210,
|
||
1210,
|
||
1210,
|
||
1210,
|
||
2020,
|
||
2222,
|
||
2,
|
||
2,
|
||
2,
|
||
2111,
|
||
1,
|
||
1,
|
||
5,
|
||
,
|
||
,
|
||
0080,
|
||
#GOGOSTART
|
||
3430,
|
||
4440,
|
||
3333,
|
||
3300,
|
||
3430,
|
||
3030,
|
||
4040,
|
||
4,
|
||
3430,
|
||
4440,
|
||
3333,
|
||
3300,
|
||
3430,
|
||
3030,
|
||
4040,
|
||
4040,
|
||
6,
|
||
0000000000000008,
|
||
#GOGOEND
|
||
#BPMCHANGE 180
|
||
1111,
|
||
0011,
|
||
1100,
|
||
5,
|
||
,
|
||
#MEASURE 9/4
|
||
087000000000000008,
|
||
000000
|
||
#BPMCHANGE 178
|
||
00
|
||
#BPMCHANGE 178
|
||
0,
|
||
#MEASURE 4/4
|
||
#BPMCHANGE 172
|
||
1110,
|
||
1011,
|
||
1010,
|
||
1110,
|
||
1011,
|
||
1010,
|
||
10010001,
|
||
00010000,
|
||
#MEASURE 3/4
|
||
000,
|
||
#MEASURE 4/4
|
||
#GOGOSTART
|
||
3430,
|
||
4440,
|
||
3333,
|
||
3300,
|
||
3430,
|
||
3030,
|
||
4040,
|
||
4,
|
||
3430,
|
||
4440,
|
||
3333,
|
||
3300,
|
||
3430,
|
||
3030,
|
||
4040,
|
||
4040,
|
||
6,
|
||
0000000000000008,
|
||
6,
|
||
0000000000000008,
|
||
6,
|
||
0000000000000008,
|
||
#GOGOEND
|
||
30000403,
|
||
0005,
|
||
,
|
||
#MEASURE 9/4
|
||
000000000,
|
||
080400000000000000,
|
||
#END
|
||
|
||
COURSE:Easy
|
||
LEVEL:3
|
||
BALLOON:5
|
||
SCOREINIT:
|
||
SCOREDIFF:
|
||
NOTESDESIGNER0:Colin
|
||
|
||
#START
|
||
30000003,
|
||
00000005,
|
||
0000085000085000,
|
||
8500000800000000,
|
||
1010,
|
||
1010,
|
||
1010,
|
||
1010,
|
||
1010,
|
||
1010,
|
||
2,
|
||
2020,
|
||
2,
|
||
2,
|
||
2,
|
||
2010,
|
||
1,
|
||
1,
|
||
5,
|
||
,
|
||
,
|
||
0080,
|
||
#GOGOSTART
|
||
3030,
|
||
4040,
|
||
3030,
|
||
3300,
|
||
3030,
|
||
3030,
|
||
4040,
|
||
4,
|
||
3030,
|
||
4040,
|
||
3030,
|
||
3300,
|
||
3030,
|
||
3030,
|
||
4040,
|
||
4040,
|
||
6,
|
||
0000000000000008,
|
||
#GOGOEND
|
||
#BPMCHANGE 180
|
||
1001,
|
||
0010,
|
||
0100,
|
||
5,
|
||
,
|
||
#MEASURE 9/4
|
||
087000000000000008,
|
||
000000
|
||
#BPMCHANGE 178
|
||
00
|
||
#BPMCHANGE 178
|
||
0,
|
||
#MEASURE 4/4
|
||
#BPMCHANGE 172
|
||
1010,
|
||
1,
|
||
1010,
|
||
1,
|
||
1010,
|
||
1,
|
||
10010001,
|
||
00010000,
|
||
#MEASURE 3/4
|
||
000,
|
||
#MEASURE 4/4
|
||
#GOGOSTART
|
||
3030,
|
||
4040,
|
||
3030,
|
||
3300,
|
||
3030,
|
||
3030,
|
||
4040,
|
||
4,
|
||
3030,
|
||
4040,
|
||
3030,
|
||
3300,
|
||
3030,
|
||
3030,
|
||
4040,
|
||
4040,
|
||
6,
|
||
0000000000000008,
|
||
6,
|
||
0000000000000008,
|
||
6,
|
||
0000000000000008,
|
||
#GOGOEND
|
||
30000403,
|
||
0005,
|
||
,
|
||
#MEASURE 9/4
|
||
000000000,
|
||
080400000000000000,
|
||
#END
|