Files
2025-06-11 19:53:16 -04:00

494 lines
6.0 KiB
Plaintext

//
TITLE:Teammate
TITLEJA:チームメイト
TITLEEN:Teammate
TITLECN:Teammate
TITLETW:Teammate
TITLEKO:Teammate
SUBTITLE:--Honeyworks ft. MORE MORE JUMP! / Project SEKAI COLORFUL STAGE!
SUBTITLEJA:Honeyworks ft. MORE MORE JUMP! 「プロジェクトセカイ カラフルステージ!」 より
SUBTITLEEN:Honeyworks ft. MORE MORE JUMP! / From " Project SEKAI COLORFUL STAGE! feat. Hatsune Miku"
SUBTITLECN:Honeyworks ft. MORE MORE JUMP! / 出自 "世界计划 缤纷舞台!"
SUBTITLETW:Honeyworks ft. MORE MORE JUMP! / 來自 「世界計畫 繽紛舞台!」
SUBTITLEKO:Honeyworks ft. MORE MORE JUMP! / "프로젝트 세카이 컬러풀 스테이지!" 에서
BPM:180
WAVE:Teammate.ogg
PREIMAGE:Teammate.png
OFFSET:-1.381
DEMOSTART:69.3405
MAKER:sakurada0291 ft. Colin
COURSE:Edit
LEVEL:9
BALLOON:14
SCOREINIT:
SCOREDIFF:
NOTESDESIGNER4:Colin
#START
20002222,
20001211,
2212,
10002211,
10002222,
20001121,
1121,
2011,
27000000,
#MEASURE 6/4
800000000000000010102011,
#MEASURE 4/4
#GOGOSTART
1010201120112211,
2011201120112222,
2011201120112012,
1011201122112222,
1011201120112011,
2011201120112222,
1011201120112022,
1011201120101011,
#GOGOEND
11202222,
20000021,
12102222,
2000000000100011,
10000112,
20101011,
2000202000202011,
2011201020101020,
21112222,
1000201210102020,
2020201110102020,
1000201110102011,
20201121,
1000201110102022,
1000201020112010,
2020101120221011,
2010201120112211,
2011201120112222,
2011201120112012,
1011201122112222,
1011201120112011,
2011201120112222,
1011201120112022,
1012101120111010,
1022,
2022,
2222,
2022,
20002021,
1000000020002011,
20222222,
1112122220112211,
24034400,
#GOGOSTART
3010201210102011,
1010201210102011,
2011201120112011,
1010201210102011,
1010201210102020,
1010201210102011,
2010201020102011,
2020111120202222,
1010201210102011,
1010201210102011,
2011201120112011,
1010201210102011,
1010201210102020,
1010201210102011,
2010201020102011,
2020111120202222,
1010201120112211,
2011201120112222,
2011201120112012,
1011201122112222,
1011201120112011,
2011201120112222,
1011201120112022,
101120112211111
#GOGOEND
1,
,
3,
,
#END
COURSE:Oni
LEVEL:7
SCOREINIT:
SCOREDIFF:
NOTESDESIGNER3:sakurada0291
#START
2022,
2020,
2222,
2022,
2022,
2020,
2222,
2022,
500000000000000000000000000000000000000000000008,
#MEASURE 6/4
000000,
#MEASURE 4/4
#GOGOSTART
1000100010111010,
1000102011102010,
2000101020101011,
2022102022101020,
2000200020111020,
2000102010111020,
1000101120102020,
1010201120221110,
#GOGOEND
11201222,
1000000000001011,
22202212,
10000021,
10000112,
20101021,
20110112,
20000022,
1000201110102020,
10201122,
2000202010112020,
10201122,
2000201010222010,
1000201010102022,
10212122,
1010202220102020,
1000101021102020,
1000200010221020,
1000102010102011,
2000201110201020,
1000102011101010,
10201122,
1000102010102011,
1010201220201000,
1022,
2022,
2222,
2022,
2020,
2000000020000022,
2222,
500000000000000000000000000000000008000000000000,
33004400,
#GOGOSTART
1000201010112010,
2000102210102010,
2010201110201020,
1010202011102010,
1000201120201020,
1000201120201020,
1010202210102020,
500000000008000000000000100000200000200200200000,
1000201010112010,
2000102210102010,
2010201110201020,
1010201022102020,
1000201120201020,
1000201120201020,
1010202210102020,
500000000008000000000000400000000000400000000000,
#GOGOEND
1000100010111010,
1000102011102010,
2000101020101011,
2022102022101020,
2000200020111020,
2000102010111020,
1000101120102020,
1010201120221110,
,
3,
,
#END
COURSE:Hard
LEVEL:5
SCOREINIT:
SCOREDIFF:
NOTESDESIGNER2:sakurada0291
#START
2,
2020,
2020,
2,
2,
2020,
2022,
2022,
500000000000000000000000000000000000000000000008,
#MEASURE 6/4
000000,
#MEASURE 4/4
#GOGOSTART
10101011,
10001022,
2121,
2022,
10101110,
20001110,
10102022,
500000000000000000000000000000000000000008000000,
#GOGOEND
10001011,
1001,
10002022,
10000022,
10000110,
2111,
20020220,
2,
10201120,
10201120,
20221020,
10201120,
20211020,
10201120,
10210120,
10202120,
20001011,
10001012,
10101120,
20011010,
20001011,
10001012,
10112020,
1022,
1020,
2,
2022,
2020,
2,
2022,
2222,
500000000000000000000000000000000008000000000000,
33004400,
#GOGOSTART
10201120,
20102210,
20201011,
1000000010102220,
10201120,
10102220,
10221122,
500000000000000000000008000000000000000000000000,
10201120,
20102210,
20102021,
1000000011102020,
10201220,
10102220,
11102220,
500000000000000000000008000000000000000000000000,
#GOGOEND
10101011,
10001022,
2121,
2022,
10101110,
20001110,
10112022,
500000000000000000000000000000000000000008000000,
,
3,
,
#END
COURSE:Normal
LEVEL:4
SCOREINIT:
SCOREDIFF:
NOTESDESIGNER1:sakurada0291
#START
2,
2,
2020,
2,
2,
2,
2022,
2020,
500000000000000000000000000000000000000000000008,
#MEASURE 6/4
000000,
#MEASURE 4/4
#GOGOSTART
1011,
1011,
2022,
2020,
1011,
2011,
1020,
500000000000000000000000000000000008000000000000,
#GOGOEND
1010,
1001,
1020,
1001,
1001,
2011,
20020020,
2,
1011,
1010,
2022,
1010,
2012,
1010,
10010020,
1022,
2011,
1010,
1111,
2011,
2011,
1010,
1122,
1020,
1020,
2,
2020,
2,
2,
2,
2020,
500000000000000000000000000000000008000000000000,
3040,
#GOGOSTART
1011,
1011,
2211,
1012,
1012,
1022,
1122,
500000000000000000000008000000000000000000000000,
1011,
1011,
2211,
1022,
1022,
1022,
1122,
500000000000000000000008000000000000000000000000,
#GOGOEND
1011,
1011,
2022,
2020,
1011,
2011,
1022,
500000000000000000000000000000000000000008000000,
,
3,
,
#END
COURSE:Easy
LEVEL:4
SCOREINIT:
SCOREDIFF:
NOTESDESIGNER0:sakurada0291
#START
2,
2,
2020,
2,
2,
2,
2,
2020,
500000000000000000000000000000000000000000000008,
#MEASURE 6/4
000000,
#MEASURE 4/4
#GOGOSTART
1010,
1,
2020,
2,
1010,
2,
1010,
500000000000000000000000000000000008000000000000,
#GOGOEND
1010,
1,
1010,
1001,
1,
2010,
2020,
2,
1010,
1,
2020,
1,
2,
1010,
1020,
1,
2010,
1,
1010,
2,
2010,
1,
1020,
1,
1,
2,
2020,
2,
2,
2,
2020,
500000000000000000000000000000000008000000000000,
3,
#GOGOSTART
1010,
1,
2010,
1,
1010,
1020,
1020,
500000000000000000000008000000000000000000000000,
1010,
1,
2010,
1,
1020,
1020,
1020,
500000000000000000000008000000000000000000000000,
#GOGOEND
1010,
1,
2020,
2,
1010,
2,
1010,
500000000000000000000000000000000000000008000000,
,
3,
,
,
,
#END