Files
2025-12-20 15:52:49 -05:00

328 lines
3.3 KiB
Plaintext

TITLE:WAVE
SUBTITLE:--niki feat. Lily
TITLEJA:WAVE
SUBTITLEJA:niki feat. Lily
PREIMAGE:WAVE.png
WAVE:WAVE.ogg
BPM:130
OFFSET:-1.878
DEMOSTART:34.647
GENRE:ボーカロイド
MAKER:Colin
COURSE:Easy
LEVEL:2
SCOREINIT:
SCOREDIFF:
NOTESDESIGNER0:Colin
#START
,
,
,
,
#GOGOSTART
1010,
1110,
1010,
1,
#GOGOEND
2,
2,
2,
2,
1010,
1,
2020,
2,
1010,
1,
#GOGOSTART
3010,
1110,
1010,
1,
2020,
2220,
2020,
2,
1010,
1,
#GOGOEND
3,
3,
3,
,
#GOGOSTART
1010,
1110,
1010,
1,
#GOGOEND
2020,
2,
#GOGOSTART
3010,
1110,
1010,
1,
2020,
2220,
2020,
2,
1010,
1,
2020,
200
#GOGOEND
0,
#GOGOSTART
1010,
1110,
1010,
1,
2020,
2250,
0080,
,
#GOGOEND
3,
#END
COURSE:Normal
LEVEL:3
SCOREINIT:
SCOREDIFF:
NOTESDESIGNER1:Colin
#START
,
,
,
,
#GOGOSTART
10001011,
1110,
1011,
1,
#GOGOEND
20002002,
2020,
20002002,
2020,
1110,
10111000,
2220,
20222000,
1011,
1,
#GOGOSTART
3110,
10111010,
1011,
1,
2220,
20222000,
20022002,
2020,
10011001,
1110,
#GOGOEND
3,
3,
3,
,
#GOGOSTART
10101011,
1110,
10101011,
1110,
#GOGOEND
2220,
2220,
#GOGOSTART
30111010,
10111000,
1110,
10111000,
20202022,
2222,
20002022,
2220,
10101011,
1010,
20202022,
202
#GOGOEND
0,
#GOGOSTART
10101011,
1110,
1110,
1110,
20202022,
2250,
0080,
,
#GOGOEND
3,
#END
COURSE:Hard
LEVEL:4
BALLOON:18,18
SCOREINIT:
SCOREDIFF:
NOTESDESIGNER2:Colin
#START
1010200110002000,
11201120,
1010200110002000,
11201120,
#GOGOSTART
31221210,
1010220010201000,
11221210,
1010220010201000,
#GOGOEND
1212,
1212,
1212,
10205008,
1010222010102000,
11211120,
1010200110102000,
10201122,
1111,
1110,
#GOGOSTART
30201121,
1001001000102010,
2002002020202020,
1001001010101000,
1002001010102010,
1001001020102010,
2002002020202020,
1001001010101020,
1002001020020020,
2212,
#GOGOEND
30000003,
30000003,
3,
,
#GOGOSTART
11221210,
1010220010201000,
11221210,
1010220010201010,
#GOGOEND
1111,
12121210,
#GOGOSTART
3002002010102010,
1001001000102010,
2002002020202020,
1001001010101000,
1002001010102010,
1001001020102010,
2002002020202020,
1001001010101020,
1002001020020020,
2212,
1002001020020020,
221
#GOGOEND
2,
#GOGOSTART
3022022000001020,
2022027000000000,
0080,
10201122,
1022022000001020,
2022027000000000,
0080,
10201122,
#GOGOEND
3,
#END
COURSE:Oni
LEVEL:9
SCOREINIT:
SCOREDIFF:
NOTESDESIGNER3:Colin
#START
1010201210102022,
100000100000200000100200100000100000200000202020,
1010201210102022,
1010201210104000,
#GOGOSTART
1211222211211202,
1121210211212102,
1122110211212202,
1121210211212012,
#GOGOEND
2022011012020210,
2010110202111020,
1012022012020220,
100000200000100100000100200000202020100000200000,
1011012010102122,
1021011020120210,
1011012010102211,
2012021020212010,
20211211,
10211012,
#GOGOSTART
3022012110201012,
1011012010202022,
1021011020112010,
1021012010211010,
3012011210202010,
1022012010201020,
1012012110102120,
1022012010201020,
4021012020210120,
2011201020104000,
#GOGOEND
30000003,
30000003,
3,
1000100010001012,
#GOGOSTART
100100200200100000202020100100200200100200000200,
1221221212112102,
1121120211212202,
1121210212111220,
#GOGOEND
20211211,
1012101210121000,
#GOGOSTART
3021012110201012,
1011012210202022,
1021011120112010,
1021012010211010,
3012011210102010,
2022012210201020,
1012012110102120,
1022012010201020,
4021012020210120,
2011201020104000,
3012021020120210,
102120212021
#GOGOEND
2020,
#GOGOSTART
3021012120212022,
1021012120212121,
1021212211211202,
1121012210211010,
3021012011212020,
1021012110212102,
1121202211211202,
1121012211211200,
#GOGOEND
3,
#END