generated from DragonRatTiger/Custom-Charts
373 lines
4.2 KiB
Plaintext
373 lines
4.2 KiB
Plaintext
TITLE:Wonder Style
|
|
SUBTITLE:--colate feat. Miku Hatsune
|
|
TITLEJA:Wonder Style
|
|
SUBTITLEJA:colate feat. 初音ミク
|
|
PREIMAGE:Wonder Style.png
|
|
BGIMAGE:Wonder StyleBG.jpg
|
|
BGMOVIE:Wonder Stylw.mp4
|
|
WAVE:Wonder Style.ogg
|
|
BPM:128
|
|
OFFSET:-0.036
|
|
DEMOSTART:84.176
|
|
MAKER:Colin
|
|
|
|
COURSE:Easy
|
|
LEVEL:2
|
|
SCOREINIT:
|
|
SCOREDIFF:
|
|
NOTESDESIGNER0:Colin
|
|
|
|
#START
|
|
,
|
|
1010,
|
|
1,
|
|
2020,
|
|
2222,
|
|
1010,
|
|
1010,
|
|
2010,
|
|
2010,
|
|
5,
|
|
8,
|
|
,
|
|
,
|
|
#GOGOSTART
|
|
1110,
|
|
2220,
|
|
1110,
|
|
2220,
|
|
1011,
|
|
1020,
|
|
2010,
|
|
1011,
|
|
#GOGOEND
|
|
2,
|
|
2,
|
|
2,
|
|
2222,
|
|
2020,
|
|
2020,
|
|
2222,
|
|
5008,
|
|
#GOGOSTART
|
|
1010,
|
|
1110,
|
|
2020,
|
|
1120,
|
|
1020,
|
|
1120,
|
|
1020,
|
|
#GOGOEND
|
|
1111,
|
|
1,
|
|
10050000,
|
|
0080,
|
|
2020,
|
|
30030033,
|
|
03330006,
|
|
,
|
|
8,
|
|
#GOGOSTART
|
|
1110,
|
|
1112,
|
|
1011,
|
|
2222,
|
|
1010,
|
|
1010,
|
|
2220,
|
|
#GOGOEND
|
|
2022,
|
|
#GOGOSTART
|
|
1010,
|
|
1110,
|
|
2011,
|
|
1210,
|
|
1020,
|
|
1120,
|
|
1020,
|
|
#GOGOEND
|
|
1022,
|
|
#GOGOSTART
|
|
1012,
|
|
1010,
|
|
1012,
|
|
1010,
|
|
#GOGOEND
|
|
2,
|
|
2,
|
|
2,
|
|
2,
|
|
3,
|
|
#END
|
|
|
|
COURSE:Normal
|
|
LEVEL:3
|
|
BALLOON:14
|
|
SCOREINIT:
|
|
SCOREDIFF:
|
|
NOTESDESIGNER1:Colin
|
|
|
|
#START
|
|
,
|
|
1011,
|
|
1010,
|
|
2020,
|
|
20222020,
|
|
1011,
|
|
1011,
|
|
20001011,
|
|
2111,
|
|
5,
|
|
8,
|
|
7,
|
|
0008,
|
|
#GOGOSTART
|
|
10101110,
|
|
2220,
|
|
10101110,
|
|
2220,
|
|
10111010,
|
|
10002022,
|
|
2010,
|
|
10111010,
|
|
#GOGOEND
|
|
2020,
|
|
2020,
|
|
2020,
|
|
2222,
|
|
2020,
|
|
2020,
|
|
2222,
|
|
5008,
|
|
#GOGOSTART
|
|
1010,
|
|
10101011,
|
|
2120,
|
|
11102010,
|
|
1022,
|
|
10102011,
|
|
10002011,
|
|
#GOGOEND
|
|
1111,
|
|
1020,
|
|
10050000,
|
|
00008022,
|
|
2222,
|
|
30030033,
|
|
03330006,
|
|
,
|
|
8,
|
|
#GOGOSTART
|
|
10101011,
|
|
1112,
|
|
1011,
|
|
20202022,
|
|
10001011,
|
|
10001022,
|
|
2220,
|
|
#GOGOEND
|
|
20222020,
|
|
#GOGOSTART
|
|
10111010,
|
|
1110,
|
|
20011010,
|
|
10201110,
|
|
10002011,
|
|
10102011,
|
|
10002011,
|
|
#GOGOEND
|
|
1022,
|
|
#GOGOSTART
|
|
10111020,
|
|
10001011,
|
|
1012,
|
|
10111020,
|
|
#GOGOEND
|
|
2020,
|
|
2020,
|
|
2020,
|
|
2020,
|
|
3,
|
|
#END
|
|
|
|
COURSE:Hard
|
|
LEVEL:4
|
|
BALLOON:18,12,5,18,6,6,18,6
|
|
SCOREINIT:
|
|
SCOREDIFF:
|
|
NOTESDESIGNER2:Colin
|
|
|
|
#START
|
|
00000001,
|
|
1001001020010020,
|
|
1000002020010010,
|
|
1000002020020020,
|
|
2221,
|
|
1002002020002220,
|
|
1002001020001010,
|
|
1000001010220110,
|
|
2121,
|
|
15000000,
|
|
8111,
|
|
1011101011101010,
|
|
7008,
|
|
#GOGOSTART
|
|
3000202010220010,
|
|
1000202020220110,
|
|
1000102020110010,
|
|
1002002010000000,
|
|
0000202010220020,
|
|
2000202020220220,
|
|
2000101010220020,
|
|
1011001010002000,
|
|
#GOGOEND
|
|
1700,
|
|
8000200010070000,
|
|
80111012,
|
|
1000100010020000,
|
|
1000200020002222,
|
|
20201021,
|
|
2022202022202020,
|
|
7008,
|
|
#GOGOSTART
|
|
1000110102201020,
|
|
1100110101002020,
|
|
2200220202207000,
|
|
8001002010222000,
|
|
1100110100002220,
|
|
2000110102201020,
|
|
1000110170008000,
|
|
#GOGOEND
|
|
1111,
|
|
2002002002002000,
|
|
2002002002002000,
|
|
2002002002002000,
|
|
2002002002002000,
|
|
30030030,
|
|
0030030030001000,
|
|
1110111011101110,
|
|
70000081,
|
|
#GOGOSTART
|
|
1001001020010020,
|
|
1000002020010010,
|
|
1000002020020020,
|
|
2221,
|
|
1002002020002220,
|
|
1002001020001010,
|
|
10011022,
|
|
#GOGOEND
|
|
50870821,
|
|
#GOGOSTART
|
|
1001001020010020,
|
|
1000002020010010,
|
|
1000002020020020,
|
|
2221,
|
|
1002002020002220,
|
|
1002001020001010,
|
|
1000001010220110,
|
|
#GOGOEND
|
|
2111,
|
|
#GOGOSTART
|
|
6,
|
|
80101011,
|
|
1001001001001010,
|
|
2002002002002020,
|
|
#GOGOEND
|
|
2222,
|
|
2222,
|
|
2020,
|
|
2000200020222020,
|
|
3,
|
|
#END
|
|
|
|
COURSE:Oni
|
|
LEVEL:8
|
|
BALLOON:8
|
|
SCOREINIT:
|
|
SCOREDIFF:
|
|
NOTESDESIGNER3:Colin
|
|
|
|
#START
|
|
00000001,
|
|
2012002012012020,
|
|
1012002012021020,
|
|
2012002012012020,
|
|
2012002010121020,
|
|
1212012012011120,
|
|
2012001022021120,
|
|
1212012010220122,
|
|
1101202010201020,
|
|
22222222,
|
|
11111111,
|
|
1111222211112222,
|
|
222222222222222222200100,
|
|
#GOGOSTART
|
|
1202102010220210,
|
|
1201202020220210,
|
|
1202102020110010,
|
|
100000100200000000200000100200000200101010102020,
|
|
1202102010120120,
|
|
2102202020220120,
|
|
1202101010120120,
|
|
1021001012012222,
|
|
#GOGOEND
|
|
1101001001002010,
|
|
1101001001001022,
|
|
2022101012202220,
|
|
100100000100000100200000101010202020101010101010,
|
|
200200200200200200200222,
|
|
100000100000100000100000100100100000100000101010,
|
|
1111222211112222,
|
|
222222111111111100200100,
|
|
#GOGOSTART
|
|
2200120102221111,
|
|
2100120211212020,
|
|
100200000000200100000100000200200000101010202020,
|
|
1202102012212212,
|
|
100100000000100200000100000100200100202020101010,
|
|
2200210101201020,
|
|
100200000000200100000100202020101010200200100100,
|
|
#GOGOEND
|
|
1112,
|
|
3021021010202020,
|
|
1011202012012020,
|
|
1021021001201020,
|
|
2012012012012000,
|
|
30130134,
|
|
0040101210202020,
|
|
2222222222222222,
|
|
222222222222222222200100,
|
|
#GOGOSTART
|
|
1201201021012210,
|
|
1202102021012120,
|
|
2102021020120120,
|
|
1202121011201120,
|
|
2021012012021110,
|
|
2012002012012210,
|
|
1011012012012210,
|
|
#GOGOEND
|
|
1202017000803010,
|
|
#GOGOSTART
|
|
1201201021012210,
|
|
1202102021012120,
|
|
2102021020120120,
|
|
1202121011201120,
|
|
2021012012021110,
|
|
2012002012012210,
|
|
1011012010120210,
|
|
#GOGOEND
|
|
1202011210112010,
|
|
#GOGOSTART
|
|
1202012012012120,
|
|
1202112012012120,
|
|
1202112012012120,
|
|
1202112010221120,
|
|
#GOGOEND
|
|
2012012002102120,
|
|
2012012012012120,
|
|
1202012012012120,
|
|
1201202210221010,
|
|
3,
|
|
#END
|
|
|