generated from DragonRatTiger/Custom-Charts
390 lines
4.6 KiB
Plaintext
390 lines
4.6 KiB
Plaintext
TITLE:magnet
|
|
SUBTITLE:--minato feat. Miku Hatsune & Luka Megurine
|
|
TITLEJA:magnet
|
|
SUBTITLEJA:minato feat. 初音ミク、巡音ルカ
|
|
PREIMAGE:magnet.jpg
|
|
BGMOVIE:magnet.mp4
|
|
WAVE:magnet.ogg
|
|
BPM:108
|
|
OFFSET:-2.374
|
|
DEMOSTART:118.068
|
|
MAKER:Colin
|
|
CATEGORY:22
|
|
SKIN:35
|
|
|
|
COURSE:Easy
|
|
LEVEL:1
|
|
SCOREINIT:
|
|
SCOREDIFF:
|
|
NOTESDESIGNER0:Colin
|
|
|
|
#START
|
|
,
|
|
,
|
|
,
|
|
,
|
|
#GOGOSTART
|
|
3010,
|
|
1110,
|
|
1010,
|
|
1110,
|
|
4020,
|
|
2220,
|
|
2020,
|
|
2220,
|
|
#GOGOEND
|
|
1,
|
|
1,
|
|
1,
|
|
1,
|
|
1,
|
|
1,
|
|
1,
|
|
1,
|
|
1111,
|
|
1010,
|
|
2220,
|
|
5008,
|
|
2220,
|
|
2220,
|
|
5080,
|
|
5080,
|
|
#GOGOSTART
|
|
3110,
|
|
1110,
|
|
2220,
|
|
2220,
|
|
1110,
|
|
1110,
|
|
2022,
|
|
2022,
|
|
#GOGOEND
|
|
5,
|
|
8,
|
|
2020,
|
|
2,
|
|
2020,
|
|
2220,
|
|
2020,
|
|
2220,
|
|
1,
|
|
1,
|
|
1,
|
|
5008,
|
|
2022,
|
|
2020,
|
|
5080,
|
|
#MEASURE 5/4
|
|
50800,
|
|
#MEASURE 4/4
|
|
#GOGOSTART
|
|
3111,
|
|
1010,
|
|
2222,
|
|
2022,
|
|
1110,
|
|
1110,
|
|
2220,
|
|
1110,
|
|
2220,
|
|
1110,
|
|
2222,
|
|
1011,
|
|
1011,
|
|
1011,
|
|
1011,
|
|
1020,
|
|
5,
|
|
,
|
|
8,
|
|
,
|
|
2020,
|
|
2220,
|
|
2020,
|
|
2022,
|
|
#GOGOEND
|
|
2,
|
|
#END
|
|
|
|
COURSE:Normal
|
|
LEVEL:3
|
|
SCOREINIT:
|
|
SCOREDIFF:
|
|
NOTESDESIGNER1:Colin
|
|
|
|
#START
|
|
20020000,
|
|
20020000,
|
|
20020000,
|
|
,
|
|
#GOGOSTART
|
|
30101110,
|
|
10111000,
|
|
10101110,
|
|
1110,
|
|
40202220,
|
|
2220,
|
|
20222020,
|
|
20222020,
|
|
#GOGOEND
|
|
1010,
|
|
1110,
|
|
1010,
|
|
1110,
|
|
1010,
|
|
1110,
|
|
1010,
|
|
1110,
|
|
10111010,
|
|
1110,
|
|
20222020,
|
|
5008,
|
|
20222022,
|
|
20202022,
|
|
50008022,
|
|
5080,
|
|
#GOGOSTART
|
|
31101000,
|
|
11101000,
|
|
22202220,
|
|
20222020,
|
|
10111010,
|
|
1110,
|
|
20222020,
|
|
2222,
|
|
#GOGOEND
|
|
5,
|
|
8,
|
|
20222020,
|
|
2020,
|
|
20222020,
|
|
2220,
|
|
2022,
|
|
2220,
|
|
1,
|
|
1,
|
|
1,
|
|
5008,
|
|
20202022,
|
|
20202022,
|
|
50008022,
|
|
#MEASURE 5/4
|
|
50800,
|
|
#MEASURE 4/4
|
|
#GOGOSTART
|
|
30101110,
|
|
10101110,
|
|
20222020,
|
|
2222,
|
|
10101110,
|
|
1110,
|
|
20202220,
|
|
10111010,
|
|
20202220,
|
|
10111020,
|
|
20222020,
|
|
10001110,
|
|
10101110,
|
|
10101110,
|
|
1111,
|
|
10002022,
|
|
5,
|
|
,
|
|
8,
|
|
,
|
|
20202220,
|
|
20202220,
|
|
20002022,
|
|
2222,
|
|
#GOGOEND
|
|
2002002002000000,
|
|
#END
|
|
|
|
COURSE:Hard
|
|
LEVEL:4
|
|
SCOREINIT:
|
|
SCOREDIFF:
|
|
NOTESDESIGNER2:Colin
|
|
|
|
#START
|
|
2002002002000000,
|
|
2002002002000000,
|
|
2002002002000000,
|
|
3003030300000000,
|
|
#GOGOSTART
|
|
3020220010102000,
|
|
1020220010102000,
|
|
1020220010102000,
|
|
3434,
|
|
3020220200102020,
|
|
1000220200102020,
|
|
12101212,
|
|
3034,
|
|
#GOGOEND
|
|
30200120,
|
|
10200120,
|
|
10200120,
|
|
10200120,
|
|
10200120,
|
|
10200120,
|
|
10200120,
|
|
10200120,
|
|
2000200201001010,
|
|
2011020500008022,
|
|
2000001020020020,
|
|
2011000000000000,
|
|
1000100202002020,
|
|
1022020200201020,
|
|
50008022,
|
|
20013300,
|
|
#GOGOSTART
|
|
1011020000022202,
|
|
0201020000022202,
|
|
0201004000403040,
|
|
3000001040040040,
|
|
4011020200022202,
|
|
0201020000022202,
|
|
0102004000403040,
|
|
3000001040040040,
|
|
#GOGOEND
|
|
3020220200101000,
|
|
1010200200111010,
|
|
1010200022202000,
|
|
1022020020202000,
|
|
0200100200100100,
|
|
1002020201102000,
|
|
1002001002001020,
|
|
1022020220202020,
|
|
1000200102001010,
|
|
1022020200000020,
|
|
2000002020010020,
|
|
2022000000000000,
|
|
2000200101001010,
|
|
2002020200202020,
|
|
50008222,
|
|
#MEASURE 5/4
|
|
3000330000,
|
|
#MEASURE 4/4
|
|
#GOGOSTART
|
|
1011020000022202,
|
|
0201020000022202,
|
|
0201004000403040,
|
|
3000001040040040,
|
|
4011020200022202,
|
|
0201020000022202,
|
|
0102004000403040,
|
|
3000001040040040,
|
|
3011020200022202,
|
|
0201010200022202,
|
|
0102004000403040,
|
|
3000001040040040,
|
|
4011020200022202,
|
|
0201020000022202,
|
|
0201004000403040,
|
|
3000001040040040,
|
|
3020220201020000,
|
|
1020220101020220,
|
|
1020220101020220,
|
|
30403044,
|
|
3020200200508020,
|
|
2002020202222020,
|
|
1010100010222020,
|
|
3434,
|
|
#GOGOEND
|
|
2002002002000000,
|
|
#END
|
|
|
|
COURSE:Oni
|
|
LEVEL:8
|
|
SCOREINIT:
|
|
SCOREDIFF:
|
|
NOTESDESIGNER3:Colin
|
|
|
|
#START
|
|
1112001112000000,
|
|
1112001112000000,
|
|
1112001112000000,
|
|
4004040302102202,
|
|
#GOGOSTART
|
|
1021220101020122,
|
|
1021220102020121,
|
|
1021220201120220,
|
|
4011201120120120,
|
|
10201020201010200010222220001010,
|
|
20202020102010200020222010201020,
|
|
10001111100010201000102010002010,
|
|
2021120210120120,
|
|
#GOGOEND
|
|
2011020202011010,
|
|
1022020101102222,
|
|
2011020202012020,
|
|
1021020101102222,
|
|
2022010101012010,
|
|
1021020202102222,
|
|
2022010202012010,
|
|
1000100010220120,
|
|
4010201201021010,
|
|
2011020212212011,
|
|
2011201020120220,
|
|
2021011012122010,
|
|
1021201202012020,
|
|
1012020202201020,
|
|
2011211201202020,
|
|
2011221120400221,
|
|
#GOGOSTART
|
|
2021020212122202,
|
|
0201020121022202,
|
|
1201012022121020,
|
|
3011201120120120,
|
|
4011020211012202,
|
|
0201020212122101,
|
|
0102012011202020,
|
|
4010401040040040,
|
|
#GOGOEND
|
|
40002220101010200020102000201010,
|
|
1211211201112122,
|
|
1112211211112212,
|
|
20001020002010222000201020201020,
|
|
1201201202102101,
|
|
2012020201212212,
|
|
1012012012011121,
|
|
2012021120404040,
|
|
3000200202001010,
|
|
1012010200000022,
|
|
2000002020010020,
|
|
2022000000000000,
|
|
3012202101112010,
|
|
2012012110222020,
|
|
1012101201212020,
|
|
#MEASURE 5/4
|
|
20112011204000000221,
|
|
#MEASURE 4/4
|
|
#GOGOSTART
|
|
2021020212122202,
|
|
0201020121022202,
|
|
1201012022121020,
|
|
3011201120120120,
|
|
4011020211012202,
|
|
0201020212122101,
|
|
0102012011202020,
|
|
4011201122212212,
|
|
1021020212122202,
|
|
0201010201021202,
|
|
1102012022121020,
|
|
3011201120120210,
|
|
3021020211011202,
|
|
0102020212122102,
|
|
0201012011202020,
|
|
4011221122212210,
|
|
4022220101020122,
|
|
1012120102010221,
|
|
1021220201020220,
|
|
1020102010120120,
|
|
10102020201010200010222220001020,
|
|
20102010102010201020222010201020,
|
|
10001110100020201010102010001000,
|
|
4021210120120120,
|
|
#GOGOEND
|
|
1112001112000000,
|
|
#END
|