Files
2025-12-20 15:52:49 -05:00

329 lines
3.7 KiB
Plaintext

TITLE:purpose
SUBTITLE:--doriko feat. Leo/need / Project SEKAI COLORFUL STAGE!
TITLEJA:purpose
SUBTITLEJA:doriko feat. Leo/need 「プロジェクトセカイ カラフルステージ!」より
PREIMAGE:purpose.png
BGMOVIE:purpose.mp4
WAVE:purpose.ogg
BPM:129.870
OFFSET:0.818
DEMOSTART:57.856
MAKER:Colin
COURSE:Easy
LEVEL:2
SCOREINIT:
SCOREDIFF:
#START
,
20020002,
,
10001003,
,
6,
#GOGOSTART
8,
,
1010,
1110,
2020,
2220,
1010,
1110,
#GOGOEND
3,
2,
1011,
1,
2020,
2,
10001011,
,
2022,
2020,
2022,
2020,
2,
1010,
1,
00000005,
00000008,
,
#GOGOSTART
30030000,
2020,
20000005,
0080,
30030000,
1010,
1000000
#GOGOEND
4,
,
#GOGOSTART
6,
8,
2020,
2,
1010,
1110,
2000200
#GOGOEND
4,
,
#GOGOSTART
5,
,
8,
,
1010,
1110,
20002006,
000
#GOGOEND
8,
#END
COURSE:Normal
LEVEL:5
SCOREINIT:
SCOREDIFF:
#START
,
20020002,
0220,
10001003,
0022,
6,
#GOGOSTART
80020020,
2,
10011010,
10111000,
20002022,
2220,
10001011,
1110,
#GOGOEND
3010,
2,
10011010,
1,
2022,
2020,
10001011,
,
20022020,
20002220,
2022,
2020,
20020020,
10001011,
10001001,
00101015,
00000008,
,
#GOGOSTART
30030022,
0222,
20002025,
0080,
30030011,
1110,
1000100
#GOGOEND
4,
0022,
#GOGOSTART
6,
8,
2220,
20222000,
1110,
10111000,
2020220
#GOGOEND
4,
,
#GOGOSTART
5,
,
8010,
1110,
10011010,
10111000,
20202026,
000
#GOGOEND
8,
#END
COURSE:Hard
LEVEL:4
SCOREINIT:
SCOREDIFF:
#START
,
1000002000001110,
0110,
10000112,
00022020,
5008,
#GOGOSTART
1001002010101010,
00201120,
1001002010101010,
00201120,
1000200110102000,
10200121,
1000200110102030,
00360080,
#GOGOEND
2001001000202000,
00021020,
1001001000101020,
01000000,
1001002000205000,
80021020,
1001001000202020,
02500080,
1001001020001000,
1001002000102220,
1001001020001000,
1001002000102220,
30030030,
0030000030030000,
3000200010020010,
0200200010202020,
02500008,
0000000000002220,
#GOGOSTART
3004003000001020,
0010201110220200,
1000200100101040,
04600080,
3004003000001020,
0010201110220200,
1010211
#GOGOEND
3,
0030001020022000,
#GOGOSTART
5,
8000200100101020,
10201121,
01201122,
10201121,
01201122,
1020112
#GOGOEND
3,
,
#GOGOSTART
1001002010101010,
00201120,
1001002010101010,
00201120,
1000200110102010,
1022201101102010,
1000200110102030,
402020202204
#GOGOEND
0000,
#END
COURSE:Oni
LEVEL:8
SCOREINIT:
SCOREDIFF:
#START
0000000000001220,
2002002000002210,
0011101110220200,
1000200120201020,
0220004040004000,
6008,
#GOGOSTART
200200000100100000202020100000100000200000100000,
1012102011221020,
200100000100000100202020100000100000200000200000,
100000100100200000200000100000202020200200100100,
100000200100000100200000202020100000200000100200,
1010201201201122,
1012021011202030,
0020112000101011,
#GOGOEND
2001001000205000,
80021020,
2012011010101020,
0010001210201010,
1010201012112020,
1011222211012020,
1021201210102040,
0040404040002211,
1022012220101011,
1012022120202211,
1000101020210120,
2012022010102210,
1110202120101110,
1011102020122211,
1010201010220110,
200200000100200000200000100000101010200000400000,
0010221120112030,
000000101010200200200100100000000000000000000000,
#GOGOSTART
3012012012101120,
1011102210120202,
1020201201102040,
000000200100200000200000100100101010100100200200,
1012012010201210,
1012101220210102,
10112010201120
#GOGOEND
30,
000000100000100000200000200200101010200000200000,
#GOGOSTART
3012011011202020,
1020101201101020,
1101201211201020,
100000100000200000100200000100200000101010100100,
2012012011201020,
1020101101102020,
10210120102210
#GOGOEND
40,
,
#GOGOSTART
200200000100100000202020100000100000200000100000,
1012102011221020,
200100000100000100202020100000100000200000200000,
100000100100200000200000100000202020200200100100,
1011202022112020,
1011202201111022,
101020112020
#SCROLL 1
20
#SCROLL 1.13333
30,
#SCROLL 1
00
#SCROLL 1.4
30
#SCROLL 1.53333
30
#SCROLL 1.66667
30
#SCROLL 1.8
3
#SCROLL 1.86667
40
#SCROLL 2
4
#GOGOEND
#SCROLL 1
0000,
#END