Files
2025-06-11 19:53:16 -04:00

216 lines
2.2 KiB
Plaintext

TITLE:Discord
SUBTITLE:--Eurobeat Brony (remixed by The Living Tombstone)
TITLEJA:Discord
SUBTITLEJA:The Living TombstoneがリミックスしたEurobeat Brony
PREIMAGE:Discord.jpg
BGMOVIE:Discord.mp4
WAVE:Discord.ogg
BPM:105
OFFSET:-0.026
DEMOSTART:27.454
GENRE:バラエティ
MAKER:Colin
COURSE:Easy
LEVEL:2
SCOREINIT:
SCOREDIFF:
NOTESDESIGNER0:Colin
#START
2022,
2020,
2022,
2020,
3010,
1110,
1010,
1110,
2020,
2220,
2020,
5008,
#GOGOSTART
3011,
1010,
3011,
1058,
4022,
2020,
4022,
20
#GOGOEND
58,
#GOGOSTART
1581,
1010,
2022,
5080,
1058,
1581,
1010,
2022,
#GOGOEND
2020,
2,
2020,
2058,
2020,
2220,
2020,
2,
3,
#END
COURSE:Normal
LEVEL:2
SCOREINIT:
SCOREDIFF:
NOTESDESIGNER1:Colin
#START
20002022,
20002200,
20002022,
2020,
30001011,
1110,
10011010,
1110,
20022020,
20222000,
2022,
5008,
#GOGOSTART
30101110,
1010,
30101110,
1058,
4022,
20222020,
4022,
20
#GOGOEND
58,
#GOGOSTART
1581,
10111000,
20202022,
5080,
1158,
1581,
10111000,
20202220,
#GOGOEND
2020,
2022,
2020,
2258,
20002200,
20202200,
20002200,
2,
3,
#END
COURSE:Hard
LEVEL:4
SCOREINIT:
SCOREDIFF:
NOTESDESIGNER2:Colin
#START
22001212,
12001212,
12001212,
12002102,
30201120,
10201122,
10201122,
10201212,
10222021,
21212002,
1011000220220205,
0008,
#GOGOSTART
3060801010111000,
12121120,
3060801020111000,
2022001050000080,
3060801010111000,
1020102011102000,
3060801020111002,
20220010
#GOGOEND
50000080,
#GOGOSTART
3000300022202000,
2220200022202000,
2220200022202000,
5008,
3000300011101000,
1110100011101000,
1110100011101000,
5008,
#GOGOEND
10201120,
10201120,
10201120,
10201122,
10201120,
10201120,
10201120,
1,
3,
#END
COURSE:Oni
LEVEL:8
SCOREINIT:
SCOREDIFF:
NOTESDESIGNER3:Colin
#START
12021212,
12021212,
12021212,
12021204,
3020122122020122,
2101012202122212,
0011221212020122,
2201012202112212,
1010201120102022,
1020102010112020,
1021012110120202,
12021214,
#GOGOSTART
3060802012121002,
1222112212121020,
3060802012121001,
2022021210102020,
3060802012121002,
1222112212121020,
3060802122121001,
20220212
#GOGOEND
10000040,
#GOGOSTART
3010202011201220,
1120122011201220,
1120122011201220,
5008,
3010202120120110,
1021202010210210,
1010202120120110,
1021202010220010,
#GOGOEND
30201120,
10201120,
10201120,
10201122,
10201120,
10201120,
10201120,
1,
3,
#END