Files
2025-06-11 19:53:16 -04:00

538 lines
5.2 KiB
Plaintext

TITLE:Disorder
SUBTITLE:--HyuN ft. YURI / 【G2R2018】
TITLEJA:Disorder
SUBTITLEJA:HyuN ft. YURI 「【G2R2018】」より
PREIMAGE:Disorder.jpg
BGMOVIE:Disorder.mp4
WAVE:Disorder.ogg
BPM:193
OFFSET:-0.808
DEMOSTART:92.206
MAKER:Colin
COURSE:Easy
LEVEL:5
SCOREINIT:
SCOREDIFF:
NOTESDESIGNER0:Colin
#START
3,
3,
3,
,
4,
4,
4,
,
,
1010,
1,
2020,
2,
1010,
1,
2020,
2,
30030030,
03003030,
30030030,
03003030,
2020,
2220,
2020,
2220,
1010,
1110,
1010,
1110,
2020,
2220,
2020,
2220,
1010,
1110,
1010,
1111,
40040040,
04004040,
40040040,
04004040,
40040040,
04004040,
40040040,
04004040,
40040040,
04004040,
40040040,
04004040,
40040040,
04004040,
40040040,
04002020,
3,
1,
1,
1,
1,
1,
1010,
1,
3,
1,
1,
1010,
1,
1,
1010,
1,
3,
3,
3,
,
0010,
#GOGOSTART
6,
,
8010,
1110,
1010,
1110,
1010,
1111,
#GOGOEND
1010,
#GOGOSTART
1
#GOGOEND
00
#GOGOSTART
0
#GOGOEND
00
#GOGOSTART
0
#GOGOEND
0
#GOGOSTART
0
#GOGOEND
0000000,
#GOGOSTART
2020,
2220,
2020,
2220,
2020,
2220,
1020,
1010,
1020,
1,
1020,
1010,
1020,
1,
#GOGOEND
30030030,
03003030,
30030030,
03003030,
0300,
#END
COURSE:Normal
LEVEL:6
SCOREINIT:
SCOREDIFF:
NOTESDESIGNER1:Colin
#START
3,
3,
3,
,
4,
4,
4,
,
,
1011,
1010,
2022,
2020,
1011,
1010,
2022,
2020,
30030030,
03003030,
30030030,
03003030,
20222020,
2220,
2220,
2220,
10111010,
1110,
1110,
1110,
2220,
22202000,
2220,
2220,
10101011,
1110,
1011,
1111,
40040040,
04004040,
40040040,
04004040,
40040040,
04004040,
40040040,
04004040,
40040040,
04004040,
40040040,
04004040,
40040040,
04004040,
40040040,
04002020,
3020,
1020,
1020,
1020,
1020,
1020,
1212,
1020,
3020,
1020,
1020,
1212,
1020,
1020,
1010,
1,
3,
3,
3,
,
0010,
#GOGOSTART
6,
,
8010,
10101011,
1012,
1110,
10001011,
1111,
#GOGOEND
1210,
#GOGOSTART
1
#GOGOEND
00
#GOGOSTART
0
#GOGOEND
20
#GOGOSTART
0
#GOGOEND
0
#GOGOSTART
2
#GOGOEND
0000000,
#GOGOSTART
20202022,
2221,
2120,
2221,
2021,
20202011,
10012001,
10011000,
10002011,
1110,
1120,
1110,
10112000,
1010,
#GOGOEND
30030030,
03003030,
30030030,
03003030,
0300,
#END
COURSE:Hard
LEVEL:7
SCOREINIT:
SCOREDIFF:
NOTESDESIGNER2:Colin
#START
30030000,
30030000,
30030000,
30030000,
30030000,
30030000,
30030000,
,
,
10201122,
10120122,
21210122,
1022200022202020,
10210120,
10210122,
11210122,
1022202220002000,
10210120,
12012020,
20120120,
12022112,
1000102010222220,
11212121,
1002002220111010,
2022200020111010,
2000102010102220,
10210121,
2002002220102000,
1000201020111000,
1010201000222010,
10212022,
1002002010102000,
11202012,
1000102010222220,
11212121,
1002002220111010,
2022200020111010,
22212021,
02112022,
11202021,
02112022,
11202021,
02112022,
11202021,
0020101022222020,
22212021,
02112022,
11202021,
02112022,
11202021,
02112022,
11202021,
02110000,
1222,
1250,
8112,
2210,
2222,
1122,
1000001020010020,
1220,
30002022,
1212,
10010020,
1010,
1221,
1212,
1000001020010010,
2220,
30030000,
30030000,
30030000,
,
,
#GOGOSTART
1010201000222020,
10210122,
10220122,
0010202220111010,
20120212,
02212121,
10120122,
0022202220111000,
#GOGOEND
1000201011102220,
#GOGOSTART
3
#GOGOEND
00
#GOGOSTART
3
#GOGOEND
00
#GOGOSTART
3
#GOGOEND
0
#GOGOSTART
4
#GOGOEND
0102000,
#GOGOSTART
10210121,
0010222220001010,
20120212,
01212122,
10120222,
01212210,
20120121,
11120121,
10210120,
1010222022201110,
10120211,
20120122,
21210122,
1022202220222000,
#GOGOEND
22212021,
02112022,
11202021,
02112022,
0300,
#END
COURSE:Oni
LEVEL:9
BALLOON:12
SCOREINIT:
SCOREDIFF:
NOTESDESIGNER3:Colin
#START
12221000,
12221000,
12221000,
12221000,
12221000,
12221000,
12221000,
,
,
1011201020112020,
1011102010222020,
2011201020102020,
1022111122112222,
1011202010222020,
1021012010222020,
2011201020102020,
1022111122112222,
1022201022201022,
2010222010112010,
1022201022201022,
2011102022221111,
2011201020221210,
1011201120112022,
1012012211112211,
2011221120221111,
2010201120221210,
1011201120112211,
2012021122121111,
2011221122221111,
2010201020221210,
1011201120112011,
2012012022121111,
2011221122221111,
2020101120221210,
2011201120112210,
2012012022121111,
2011221122111111,
1022201022201022,
2010222010221010,
1022201022201022,
200000100000200200200000100000200000202020202020,
1022201022201022,
2010222020102020,
1022201022201022,
2010222070000000,
8022221022221022,
2210222210221020,
1022221022221022,
200200100000200200200200100000100100202020202020,
1022221120102222,
1022222022112222,
1212202222112211,
200000202020200200101010100000000000000000000000,
3222,
2122,
1122,
1220,
1222,
1222,
1000002020020020,
1220,
10002022,
1202,
10010110,
10201022,
10201022,
2211,
2000001020010010,
2220,
12221000,
12221000,
12221000,
,
,
#GOGOSTART
2011102011201020,
100000100000200200100100200000101010200000200000,
2011102011101020,
1011111120221111,
2010202211201022,
100000100000200000100100200000101010200000200000,
1011202010112020,
1011221122221111,
#GOGOEND
2010102022222222,
#GOGOSTART
200
#GOGOEND
000000
#GOGOSTART
400
#GOGOEND
000000
#GOGOSTART
400
#GOGOEND
000
#GOGOSTART
400
#GOGOEND
000101010200000101010,
#GOGOSTART
2010201110102020,
1011221122221111,
2010201110201020,
1010201120112210,
1011202010112020,
1011221122221111,
2011102010201120,
200000100100100000200000100000101010200000200000,
2011201111201020,
1011221122112222,
1011202011102011,
2011102010202010,
2011201110102020,
2011221122112222,
#GOGOEND
1022221022221022,
1022221020101022,
1022221022221010,
2211112011112222,
0300,
#END