Files
2025-06-11 19:53:16 -04:00

352 lines
3.4 KiB
Plaintext

TITLE:Doku
TITLEJA:毒
SUBTITLE:--HAKUSHI HASEGAWA
SUBTITLEJA:長谷川白紙
BPM:203
WAVE:Doku.ogg
OFFSET:-0.319
DEMOSTART:57.067
MAKER:Colin
COURSE:Oni
LEVEL:10
BALLOON:
SCOREINIT:
SCOREDIFF:
NOTESDESIGNER3:Colin
#START
11222221,
1010202020202021,
22222221,
0200100100100111,
22222221,
1020202020202011,
22222221,
0100100100100100,
2010201212221021,
2011201120112010,
2020121120201120,
2102102102102102,
1010201121201211,
2020102210101020,
1012112012101020,
1201201201201200,
1210201122121010,
2011201120112010,
2020221120212010,
2102102102102102,
1010201120212210,
2010101211202020,
1011202122101020,
1201201201201201,
1010201211212010,
2011201120112021,
2020101120201110,
2102102102102102,
1010201121202211,
2020101120102010,
1020101012102010,
1201201201201200,
1010201122112010,
2020101122102020,
1211221121202211,
2010201122112022,
1010201222102210,
2020201222102020,
1212121020211120,
1201201201201201,
1010201122112120,
0010201122112020,
1121221121212210,
0010201122102020,
1010201122102210,
0010201122112020,
2210221120201010,
111111,
#GOGOSTART
1011201010201010,
2011102010102010,
2010201110201020,
2011102012101022,
1010221120202121,
2010102011201020,
1011201010221010,
2010102210102111,
2011221010201010,
2010102111121010,
2010201110201111,
2010102210121121,
1011201210221010,
2110112210102110,
2111201010201010,
2012102211101011,
200000200000200000201010200200100200100000100100,
2011201120121120,
2020121110201210,
2102102102102102,
1010101220201010,
2010102210102020,
1010202022102120,
1201201201201200,
#GOGOEND
#END
COURSE:Hard
LEVEL:3
BALLOON:15,15,55,55
SCOREINIT:
SCOREDIFF:
NOTESDESIGNER2:Colin
#START
10000001,
0,
10000007,
00000008,
10000001,
0,
10000007,
00000008,
11201021,
02112120,
11201211,
50000008,
11201021,
02112120,
11201025,
00000008,
5081,
01110111,
01110115,
00000008,
20002111,
01500008,
50000085,
00000008,
5081,
01110111,
01110115,
00000008,
20002111,
01500008,
50000085,
00000008,
50008012,
0111,
10110115,
00000008,
20002111,
01001010,
50000085,
00000008,
50008012,
01201010,
11201015,
00000008,
20002111,
01500008,
50000085,
00000008,
#GOGOSTART
7,
0,
0,
0008,
7,
0,
0,
0008,
10010010,
01001010,
20020020,
05000008,
10010010,
01001010,
5,
00000822,
1210,
1210,
1210,
50000008,
1021,
11,
10002120,
50000008,
#GOGOEND
#END
COURSE:Normal
LEVEL:3
BALLOON:10,10,45,45
SCOREINIT:
SCOREDIFF:
NOTESDESIGNER1:Colin
#START
10000001,
0,
10000007,
00000008,
10000001,
0,
10000007,
00000008,
1210,
1210,
10201001,
50000008,
1210,
1210,
10201005,
00000008,
58,
1110,
10101005,
00000008,
2001,
01500008,
50000085,
00000008,
5081,
1111,
10010015,
00000008,
2,
11500008,
50000085,
00000008,
58,
11,
10010015,
00000008,
20000001,
0011,
50000085,
00000008,
58,
11,
10000015,
00000008,
20002001,
00500008,
50000085,
00000008,
#GOGOSTART
7,
0,
0,
0008,
7,
0,
0,
0008,
1001,
01,
2002,
05000008,
1001,
0001,
5,
00000820,
11,
11,
1210,
50000008,
12,
1,
12,
50000008,
#GOGOEND
#END
COURSE:Easy
LEVEL:3
BALLOON:5,5,35,35
SCOREINIT:
SCOREDIFF:
NOTESDESIGNER0:Colin
#START
1,
0,
10000007,
00000008,
1,
0,
10000007,
00000008,
1,
1,
10000001,
50000008,
1,
1,
10000005,
00000008,
58,
1,
10000005,
00000008,
2,
01500008,
50000085,
00000008,
58,
11,
10000015,
00000008,
2,
10500008,
50000085,
00000008,
58,
11,
10000015,
00000008,
20000001,
0001,
50000085,
00000008,
58,
1,
10000005,
00000008,
20000001,
00500008,
50000085,
00000008,
#GOGOSTART
7,
0,
0,
0008,
7,
0,
0,
0008,
1,
0,
2,
05000008,
1001,
0001,
5,
00000800,
1,
01,
1,
50000008,
1,
1,
1,
50000008,
#GOGOEND
#END