Files
2025-06-11 19:53:16 -04:00

376 lines
4.2 KiB
Plaintext

//Commissioned by Moox
TITLE:Everywhere
SUBTITLE:--Wunderlich Ausgang
TITLEJA:Everywhere
SUBTITLEJA:Wunderlich Ausgang
PREIMAGE:Everywhere.jpg
BGIMAGE:EverywhereBG.jpg
BGMOVIE:Everywhere.mp4
WAVE:Everywhere.ogg
BPM:234.7
OFFSET:-0.449
DEMOSTART:-6.074
MAKER:Colin
COURSE:Easy
LEVEL:2
SCOREINIT:
SCOREDIFF:
NOTESDESIGNER0:Colin
#START
#BARLINEOFF
0,
,
,
,
#MEASURE 6/4
000000,
#MEASURE 4/4
#BARLINEON
#BPMCHANGE 117.35
01010200,
01010100,
01010200,
01010200,
02020200,
01000200,
10010100,
01010100,
02020200,
01010100,
02020200,
01020100,
0201020
#GOGOSTART
0,
1001,
1000000100001000,
1000000100000100,
1000000100001000,
1000000200000000,
2000000200002000,
2000000200000000,
2000000200000000,
2000002000000200,
20020000,
20020000,
10010000,
10010000,
20020000,
10010000,
20020000,
1000001000000002,
0220,
10010000,
10010000,
20020000,
10010000,
2020,
2010,
1010,
2,
10001003,
00000003,
,
2020,
#GOGOEND
1,
01010100,
02020200,
01010100,
,
0011,
1,
#END
COURSE:Normal
LEVEL:3
SCOREINIT:
SCOREDIFF:
NOTESDESIGNER1:Colin
#START
#BARLINEOFF
0,
,
,
,
#MEASURE 6/4
000000,
#MEASURE 4/4
#BARLINEON
#BPMCHANGE 117.35
01010200,
11010100,
11010200,
01011201,
02020222,
01010220,
10110100,
01010100,
02020200,
01010100,
02020200,
01020100,
0201020
#GOGOSTART
0,
1001,
1000000100001000,
1000000100000100,
1000100100101000,
1000000200002020,
2000000200002020,
2000000200000000,
2000000200002000,
2000002000200200,
20020022,
20020020,
10010011,
10010100,
20020202,
10010110,
20020010,
1000001000001002,
0221,
10010010,
10110010,
20020010,
10010010,
2120,
2110,
10111000,
2010,
10101013,
00001003,
0010,
2120,
#GOGOEND
1010,
01010100,
02020200,
01010100,
,
0011,
1000000000200200,
#END
COURSE:Hard
LEVEL:4
SCOREINIT:
SCOREDIFF:
NOTESDESIGNER2:Colin
#START
#BARLINEOFF
0,
,
,
,
#MEASURE 6/4
000000,
#MEASURE 4/4
#BARLINEON
#BPMCHANGE 117.35
1011110010200010,
1011110010200010,
1011110010200010,
1011110010200000,
1011110010200010,
1011110010202200,
1011110010200010,
1011110010200000,
1011110010200010,
1011110010200010,
1011110010200010,
1011110010200000,
10111100102000
#GOGOSTART
10,
1011110010202200,
1011110010200010,
1011110010200010,
2010201100102000,
1000220202002220,
1010200101111000,
1100110200222000,
1022200102222010,
1000200102222000,
1000200101111000,
1000200101110000,
1000200100102000,
1000200100102000,
1000200100102000,
1011110100102000,
1011110100102000,
1000200100102010,
1000200101110000,
1111000100102000,
1000200100102000,
1022200100102000,
1000200101110000,
1000200100102010,
1000200100102010,
1010201100102000,
1110200100102000,
1000200100102030,
0022200100102030,
1000200100102010,
1000200100102220,
#GOGOEND
1011100010200000,
1011100010200000,
1000200022200200,
1011110010200200,
0222202220111010,
1000100022200100,
1110100010200300,
#END
COURSE:Oni
LEVEL:8
SCOREINIT:
SCOREDIFF:
NOTESDESIGNER3:Colin
#START
#BARLINEOFF
0,
,
,
,
#MEASURE 6/4
000000,
#MEASURE 4/4
#BARLINEON
#BPMCHANGE 117.35
1111111111201010,
1111111111201010,
1111111111201010,
1111111111201010,
1111111111201010,
1111110111201200,
1111111110403030,
1111111110403030,
1111111110403030,
1111111110403030,
1111111110403030,
1111110011201200,
11111100112010
#GOGOSTART
10,
2111211111112122,
1111211111112222,
1101201202222220,
1111202101112122,
1200220202112222,
1111211201112122,
1101210201222122,
1211201222222011,
1011201101112222,
1011202101112222,
1011221101112222,
1111201101112222,
1111222101112122,
1011222101112122,
1111222101112122,
1111211202112122,
1111222101112120,
1011222101112120,
1111201201112122,
1011222101112122,
1111211101112122,
1111222101112122,
1111222101112122,
1111222101112122,
1011222101112122,
1011222101112122,
1011222211112030,
1111222112112040,
3011222111112122,
1011222211112220,
#GOGOEND
1111111110403030,
1111111110403030,
1111111111201200,
1111110011201200,
0222222211222222,
2222222011201200,
1111110011201210,
#END
COURSE:Edit
LEVEL:1
BALLOON:12,10,12,12,12,6,12,12,12,12,12,6,6,430,14,14,14,12,12,6,6,21,6
SCOREINIT:
SCOREDIFF:
NOTESDESIGNER4:Colin
#START
#BARLINEOFF
0,
,
,
,
#MEASURE 6/4
#BARLINEON
000000,
#MEASURE 4/4
#BPMCHANGE 117.35
7008,
70000800,
7008,
7008,
7008,
70080000,
7008,
7008,
7008,
7008,
7008,
70080000,
7008000
#GOGOSTART
0,
7,
,
,
,
,
,
,
,
,
,
,
,
,
,
,
,
,
,
,
,
,
,
,
,
,
,
00000008,
70000008,
70000008,
70000008,
#GOGOEND
7008,
7008,
70080000,
70080000,
0700000000000000,
00080000,
70080000,
#END