generated from DragonRatTiger/Custom-Charts
603 lines
5.6 KiB
Plaintext
603 lines
5.6 KiB
Plaintext
TITLE:Infinite Dreamtale
|
|
SUBTITLE:--Luna_Asuka / BOFXVII
|
|
TITLEJA:Infinite Dreamtale
|
|
SUBTITLEJA:--Luna_Asuka 「BOFXVII」より
|
|
BPM:195
|
|
WAVE:Infinite Dreamtale.ogg
|
|
BGMOVIE:Infinite Dreamtale.mp4
|
|
BGIMAGE:Infinite DreamtaleBG.jpg
|
|
PREIMAGE:Infinite Dreamtale.png
|
|
OFFSET:-5.501
|
|
DEMOSTART:25.193
|
|
MAKER:Colin, DiamondN1nja
|
|
|
|
COURSE:Oni
|
|
LEVEL:9
|
|
SCOREINIT:
|
|
SCOREDIFF:
|
|
NOTESDESIGNER3:Colin
|
|
|
|
#START
|
|
1110000020000000,
|
|
1110000020000000,
|
|
1120000020000000,
|
|
1120000000000000,
|
|
1120000010000000,
|
|
1120000010000000,
|
|
1120000010000000,
|
|
1120000000000000,
|
|
10102001,
|
|
00102100,
|
|
10102001,
|
|
00102111,
|
|
1120000000000000,
|
|
1120000000000000,
|
|
#SCROLL 10
|
|
6,
|
|
0008,
|
|
#SCROLL 2
|
|
30
|
|
#SCROLL 1
|
|
00000011212222,
|
|
1120000000
|
|
#SCROLL 2
|
|
303000,
|
|
3
|
|
#SCROLL 1
|
|
000000011211222,
|
|
1120000000
|
|
#SCROLL 2
|
|
303000,
|
|
#GOGOSTART
|
|
3
|
|
#SCROLL 1
|
|
000112210102022,
|
|
1000112210112020,
|
|
1020102010112020,
|
|
2222112210101010,
|
|
3020111120201020,
|
|
1020102010112020,
|
|
2000111120201011,
|
|
12121110,
|
|
2222111120102000,
|
|
2222111120112010,
|
|
2211201020102020,
|
|
#GOGOEND
|
|
2222112211221010,
|
|
1010201110201011,
|
|
2011102210202010,
|
|
1011202010201202,
|
|
1012112211111000,
|
|
3010201210201211,
|
|
2012111010201120,
|
|
11111111,
|
|
1111111111111111,
|
|
1010201110102020,
|
|
1011201110102011,
|
|
1010201110102022,
|
|
1010201110102021,
|
|
1010201110102011,
|
|
1010201101102022,
|
|
1010201110102011,
|
|
1011201022112010,
|
|
4010201110102020,
|
|
1011201110102011,
|
|
1010201110102022,
|
|
1010201110102021,
|
|
1010201110102011,
|
|
1010201101102022,
|
|
1010201110102011,
|
|
2222102212112010,
|
|
4000121120102022,
|
|
1010201210102022,
|
|
1010201211102022,
|
|
1010201101102022,
|
|
1010201210102022,
|
|
1010201210102022,
|
|
1011201120102000,
|
|
3011201022112010,
|
|
4010201120102022,
|
|
1010201120102022,
|
|
1010201120102012,
|
|
1010201120102022,
|
|
1010221120102022,
|
|
100000100000200010001000200000100000200000200200,
|
|
1010201210102011,
|
|
2111211121112111,
|
|
20012010,
|
|
00102100,
|
|
10102102,
|
|
02112111,
|
|
1120,
|
|
00102100,
|
|
10102012,
|
|
2211222211221111,
|
|
10121020,
|
|
2020002010102022,
|
|
10021120,
|
|
22121020,
|
|
12222220,
|
|
22222220,
|
|
1020102210201020,
|
|
1111111111111111,
|
|
2000111120201010,
|
|
22021033,
|
|
#GOGOSTART
|
|
3000112220201020,
|
|
1020102010112020,
|
|
1020121210201120,
|
|
100000200000100200100200100000101010100000100000,
|
|
1020112010201120,
|
|
1111201120202022,
|
|
1000112220201020,
|
|
1020102010112020,
|
|
1020121210201120,
|
|
100000200000100200100200100000101010100000100000,
|
|
1211101120202020,
|
|
2222120110112020,
|
|
2211221120102010,
|
|
2222112211111111,
|
|
#MEASURE 2/4
|
|
#GOGOEND
|
|
10,
|
|
,
|
|
,
|
|
,
|
|
2002,
|
|
0220,
|
|
2002,
|
|
0220,
|
|
22,
|
|
2220,
|
|
,
|
|
,
|
|
0
|
|
#BARLINEOFF
|
|
000,
|
|
,
|
|
#MEASURE 4/4
|
|
000
|
|
#SCROLL 10
|
|
60000,
|
|
0000000000008
|
|
#SCROLL 1
|
|
000,
|
|
#END
|
|
|
|
COURSE:Hard
|
|
LEVEL:7
|
|
BALLOON:7
|
|
SCOREINIT:
|
|
SCOREDIFF:
|
|
NOTESDESIGNER2:DiamondN1nja
|
|
|
|
#START
|
|
1,
|
|
0100000000000000,
|
|
0100000000000000,
|
|
0100000000000000,
|
|
1,
|
|
0100000000000000,
|
|
0100000000000000,
|
|
0100002020202020,
|
|
1020,
|
|
10102101,
|
|
2020,
|
|
10102120,
|
|
2,
|
|
2,
|
|
#SCROLL 10
|
|
6,
|
|
0008,
|
|
#SCROLL 2
|
|
4,
|
|
00000440,
|
|
4,
|
|
00000440,
|
|
#GOGOSTART
|
|
#SCROLL 1
|
|
30121220,
|
|
10121220,
|
|
10110120,
|
|
12101111,
|
|
20111211,
|
|
22021022,
|
|
20111211,
|
|
22021111,
|
|
20121220,
|
|
10121220,
|
|
10120222,
|
|
#GOGOEND
|
|
5008,
|
|
10010000,
|
|
0002,
|
|
10010000,
|
|
7008,
|
|
1111,
|
|
1111,
|
|
11111111,
|
|
50008022,
|
|
10200120,
|
|
10200120,
|
|
10200120,
|
|
10210120,
|
|
10200121,
|
|
10200120,
|
|
1212,
|
|
1000200022002000,
|
|
10200120,
|
|
10200120,
|
|
10200120,
|
|
10210120,
|
|
10200121,
|
|
1212,
|
|
10200021,
|
|
1000100022002000,
|
|
10211222,
|
|
2211,
|
|
20111222,
|
|
2211,
|
|
2000001110002000,
|
|
2000001110002000,
|
|
2000001110002000,
|
|
2000102022002000,
|
|
10211222,
|
|
20121020,
|
|
20111222,
|
|
20121020,
|
|
2000001110002000,
|
|
2000001110002000,
|
|
20210120,
|
|
2000102022202022,
|
|
20021000,
|
|
00101120,
|
|
20021001,
|
|
3112,
|
|
20021000,
|
|
0112,
|
|
20021001,
|
|
01001120,
|
|
10210120,
|
|
2020102010002022,
|
|
20021020,
|
|
22121010,
|
|
22222220,
|
|
22222220,
|
|
22222222,
|
|
5,
|
|
8,
|
|
00000044,
|
|
#GOGOSTART
|
|
40111211,
|
|
22021111,
|
|
20121220,
|
|
10121220,
|
|
10120222,
|
|
10201212,
|
|
2000111010202000,
|
|
12021022,
|
|
2000111010201010,
|
|
22021111,
|
|
20121220,
|
|
10121220,
|
|
10120222,
|
|
50008011,
|
|
#MEASURE 2/4
|
|
#GOGOEND
|
|
10,
|
|
,
|
|
,
|
|
,
|
|
20,
|
|
2220,
|
|
20,
|
|
2220,
|
|
2022,
|
|
0220,
|
|
,
|
|
,
|
|
0
|
|
#BARLINEOFF
|
|
000,
|
|
,
|
|
#MEASURE 4/4
|
|
#BARLINEOFF
|
|
#SCROLL 10
|
|
00000
|
|
#SCROLL 10
|
|
60000000000,
|
|
0000000000080
|
|
#SCROLL 1
|
|
000,
|
|
#END
|
|
|
|
COURSE:Normal
|
|
LEVEL:7
|
|
BALLOON:5,4,15
|
|
SCOREINIT:
|
|
SCOREDIFF:
|
|
NOTESDESIGNER1:DiamondN1nja
|
|
|
|
#START
|
|
,
|
|
,
|
|
,
|
|
,
|
|
,
|
|
,
|
|
,
|
|
,
|
|
1020,
|
|
1020,
|
|
2020,
|
|
10102220,
|
|
2,
|
|
2,
|
|
#SCROLL 10
|
|
6,
|
|
0008,
|
|
#SCROLL 1.5
|
|
4,
|
|
00000440,
|
|
4,
|
|
00000440,
|
|
#GOGOSTART
|
|
#SCROLL 1
|
|
30303033,
|
|
30303033,
|
|
30303033,
|
|
3368,
|
|
4111,
|
|
20202002,
|
|
2112,
|
|
20022020,
|
|
2112,
|
|
1112,
|
|
10101012,
|
|
5008,
|
|
10010000,
|
|
0002,
|
|
10010000,
|
|
#GOGOEND
|
|
7008,
|
|
1111,
|
|
1111,
|
|
11101110,
|
|
5080,
|
|
1202,
|
|
10020020,
|
|
1202,
|
|
10020020,
|
|
1202,
|
|
10020020,
|
|
1212,
|
|
1258,
|
|
1202,
|
|
10020020,
|
|
1202,
|
|
10020020,
|
|
1202,
|
|
1212,
|
|
10200022,
|
|
0158,
|
|
10011022,
|
|
2211,
|
|
20011022,
|
|
2211,
|
|
2012,
|
|
2012,
|
|
20011020,
|
|
20020020,
|
|
10011022,
|
|
20020020,
|
|
20011022,
|
|
20020020,
|
|
2022,
|
|
2022,
|
|
20020020,
|
|
5008,
|
|
20020000,
|
|
0112,
|
|
20020000,
|
|
7082,
|
|
20020000,
|
|
0112,
|
|
20020000,
|
|
5080,
|
|
10010010,
|
|
11010001,
|
|
10010010,
|
|
11010010,
|
|
22202220,
|
|
22202220,
|
|
7,
|
|
,
|
|
8,
|
|
00000044,
|
|
#GOGOSTART
|
|
4334,
|
|
40404022,
|
|
1112,
|
|
1112,
|
|
10110010,
|
|
20202220,
|
|
2112,
|
|
11001022,
|
|
2112,
|
|
20022020,
|
|
2112,
|
|
1112,
|
|
1212,
|
|
10101110,
|
|
#MEASURE 2/4
|
|
#GOGOEND
|
|
30,
|
|
,
|
|
,
|
|
,
|
|
20,
|
|
,
|
|
20,
|
|
,
|
|
2002,
|
|
02,
|
|
,
|
|
,
|
|
0
|
|
#BARLINEOFF
|
|
000,
|
|
,
|
|
#MEASURE 4/4
|
|
#BARLINEOFF
|
|
#SCROLL 10
|
|
00000
|
|
#SCROLL 10
|
|
60000000000,
|
|
0000000000080
|
|
#SCROLL 1
|
|
000,
|
|
#END
|
|
|
|
COURSE:Easy
|
|
LEVEL:4
|
|
SCOREINIT:
|
|
SCOREDIFF:
|
|
NOTESDESIGNER0:DiamondN1nja
|
|
|
|
#START
|
|
,
|
|
,
|
|
,
|
|
,
|
|
,
|
|
,
|
|
,
|
|
,
|
|
1,
|
|
1010,
|
|
2020,
|
|
2,
|
|
2,
|
|
2,
|
|
#SCROLL 10
|
|
6,
|
|
0080,
|
|
#SCROLL 1
|
|
4,
|
|
0004,
|
|
4,
|
|
0004,
|
|
#GOGOSTART
|
|
3033,
|
|
3033,
|
|
3030,
|
|
3330,
|
|
4030,
|
|
3330,
|
|
4040,
|
|
4040,
|
|
3033,
|
|
3033,
|
|
3033,
|
|
#GOGOEND
|
|
5008,
|
|
1010,
|
|
0002,
|
|
1010,
|
|
5080,
|
|
1110,
|
|
1110,
|
|
1111,
|
|
5080,
|
|
2,
|
|
2,
|
|
2,
|
|
2,
|
|
2,
|
|
2020,
|
|
2020,
|
|
2058,
|
|
1,
|
|
1,
|
|
1,
|
|
1,
|
|
1,
|
|
1010,
|
|
1,
|
|
10585080,
|
|
1,
|
|
2220,
|
|
2,
|
|
1110,
|
|
2,
|
|
2,
|
|
2,
|
|
2020,
|
|
1010,
|
|
2,
|
|
2010,
|
|
2,
|
|
2020,
|
|
2020,
|
|
2020,
|
|
5008,
|
|
2020,
|
|
0002,
|
|
2020,
|
|
3002,
|
|
2020,
|
|
0002,
|
|
2020,
|
|
5080,
|
|
1010,
|
|
0001,
|
|
1010,
|
|
0002,
|
|
2220,
|
|
2220,
|
|
5,
|
|
,
|
|
8,
|
|
0004,
|
|
#GOGOSTART
|
|
4040,
|
|
4040,
|
|
3033,
|
|
3033,
|
|
3030,
|
|
6080,
|
|
4040,
|
|
3044,
|
|
4040,
|
|
4040,
|
|
3033,
|
|
3033,
|
|
3030,
|
|
6080,
|
|
#MEASURE 2/4
|
|
#GOGOEND
|
|
30,
|
|
,
|
|
,
|
|
,
|
|
20,
|
|
,
|
|
20,
|
|
,
|
|
20,
|
|
,
|
|
20,
|
|
,
|
|
0
|
|
#BARLINEOFF
|
|
000,
|
|
,
|
|
#MEASURE 4/4
|
|
00000
|
|
#SCROLL 10
|
|
60000000000,
|
|
0000000000080
|
|
#SCROLL 1
|
|
000,
|
|
#END
|