Files
2025-06-11 19:53:16 -04:00

614 lines
7.8 KiB
Plaintext

TITLE:Lycoris
SUBTITLE:--Ujico*
TITLEJA:リコリス
SUBTITLEJA:Ujico*
PREIMAGE:Lycoris.jpg
WAVE:Lycoris.ogg
BPM:186
OFFSET:-0.397
DEMOSTART:52.009
MAKER:Colin & sadkay
COURSE:Easy
LEVEL:3
SCOREINIT:
SCOREDIFF:
NOTESDESIGNER0:Colin
#START
#MEASURE 5/4
2,
2,
2,
2,
1,
1,
1,
1,
2,
2,
2,
2,
#MEASURE 3/4
3,
3,
3,
040,
,
3,
3,
#MEASURE 4/4
0,
1,
1,
1,
#MEASURE 3/4
,
#MEASURE 5/4
20020,
20020,
20020,
20020,
2,
2,
2,
1,
1,
10010,
1,
1,
#GOGOSTART
30030,
30020,
20020,
20020,
20020,
20020,
#GOGOEND
2,
#GOGOSTART
30030,
30010,
30010,
30010,
30030,
30030,
#MEASURE 4/4
#GOGOEND
2,
#MEASURE 6/4
2,
#MEASURE 5/4
10010,
10010,
10010,
10010,
10010,
10010,
10010,
10010,
2,
2,
2,
2,
2,
2,
2,
2,
4,
4,
#GOGOSTART
30030,
30020,
20020,
20020,
20020,
20020,
2,
30030,
30010,
30010,
30010,
30030,
#GOGOEND
3,
,
#GOGOSTART
20020,
20020,
20000600000000000000,
#MEASURE 6/4
00000000000000000000000
#GOGOEND
8,
#END
COURSE:Normal
LEVEL:5
SCOREINIT:
SCOREDIFF:
NOTESDESIGNER1:Colin
#START
#MEASURE 5/4
20002,
20002,
20002,
20002,
10010,
10010,
10010,
10010,
20202,
20202,
20202,
20202,
#MEASURE 3/4
3,
3,
3,
040,
,
3,
3,
#MEASURE 4/4
0,
1010,
1010,
1,
#MEASURE 3/4
,
#MEASURE 5/4
20220,
20220,
20220,
20220,
20220,
20220,
20220,
10110,
10110,
10110,
10110,
1,
#GOGOSTART
30130,
30220,
20220,
20022,
20220,
20022,
#GOGOEND
2,
#GOGOSTART
30130,
30110,
30110,
30110,
30130,
30130,
#MEASURE 4/4
#GOGOEND
2,
#MEASURE 6/4
2,
#MEASURE 5/4
10011,
10010,
10011,
10010,
10011,
10010,
10011,
10010,
2,
20200,
20200,
20200,
20200,
20020,
2000020000,
20020,
4,
4,
#GOGOSTART
30130,
30022,
20220,
20022,
20022,
20022,
20010,
30031,
30110,
30110,
30110,
30130,
#GOGOEND
3,
,
#GOGOSTART
20020,
20020,
20000600000000000000,
#MEASURE 6/4
00000000000000000000000
#GOGOEND
8,
#END
COURSE:Hard
LEVEL:7
BALLOON:12
SCOREINIT:
SCOREDIFF:
NOTESDESIGNER2:sadkay
#START
#MEASURE 5/4
#SCROLL 0.5
20001,
20001,
20001,
20001,
10211,
1000201110,
1020002011,
10122,
10211,
2000201110,
1020002011,
22001,
#MEASURE 3/4
#SCROLL 1
300300300000,
4,
400404004004,
046000,
080000,
300300300000,
300300300000,
#MEASURE 4/4
70000008,
4004040040040040,
4004040040040040,
4,
#MEASURE 3/4
022,
#MEASURE 5/4
1011011202,
1011021120,
1011011202,
1011021110,
2022022020,
2022022020,
4022022020,
2022022020,
1011011202,
1011021120,
30012,
30040,
#GOGOSTART
10131,
10141,
20141,
20142,
10142,
10142,
#GOGOEND
4044044000,
#GOGOSTART
10131,
10141,
20141,
20142,
10142,
1000104110,
#MEASURE 4/4
#GOGOEND
40440440,
#MEASURE 6/4
404404404000,
#MEASURE 5/4
1012012120,
2012012120,
2012012120,
1011021110,
1012012120,
2012012210,
2012012120,
1011021110,
2011101212,
10001000201020020020,
2011201212,
1011102120,
2011101212,
1010212022,
1011201212,
1011102110,
3033033030,
3033033040,
#GOGOSTART
10131,
10141,
20141,
20142,
10142,
10142,
4022021010,
3011012220,
11101000100022202000,
30002000200011101000,
30112,
30112,
#GOGOEND
3033033033,
0330330330,
#GOGOSTART
#SCROLL 1.5
3003003003,
00003000003000300300,
35000,
#MEASURE 6/4
00000000000000000000000
#GOGOEND
8,
#END
COURSE:Oni
LEVEL:8
SCOREINIT:
SCOREDIFF:
NOTESDESIGNER3:Colin
#START
#MEASURE 5/4
20001,
20001,
20001,
20001,
2101202022,
2000211210,
10001020001020002210,
10000000222210102020,
2002202011,
2000212220,
10001020001020002210,
10002000100011112000,
#MEASURE 3/4
400000000000000000004000000000000000040000000000100000100000200000200000,
100011112222,
100000000000000000040000000000300000000000000000400000000000000000100000,
202030001120,
102011221111,
200000004000000000400000100100100100,
200000000040000000400000100100100100,
#MEASURE 4/4
1111222211112222,
100004003000040004000200,
100000000000000000004000000000300000000000000000300000000000000000040000000000000003000000000000,
4222,
#MEASURE 3/4
100200222,
#MEASURE 5/4
1121012112,
1122012121,
4121012112,
1122211121,
4022022020,
2022022020,
2022022020,
2022022022,
4211012112,
3122011121,
400100100200000100200100101010,
20002020002011112000,
#GOGOSTART
4013112211,
4021012110,
4022123122,
400000200200100111200100200100,
4011304030,
400000200100200100200200101010,
#GOGOEND
200000000000200000200000000000200000100100100100200010001000,
#GOGOSTART
4003112211,
4021012110,
4022023022,
400000200200100111200100200100,
4011304030,
400000200100200100200200101010,
#MEASURE 4/4
#GOGOEND
40220220,
#MEASURE 6/4
400020200020200020001111,
#MEASURE 5/4
1121012112,
1122012121,
4112012112,
1112011121,
1112021111,
2112021121,
4112021121,
10101020002011112010,
4112021122,
1112021211,
4112021121,
2111211112,
4012011111,
4012011221,
4112021122,
1112021121,
4022022020,
40002020002011112000,
#GOGOSTART
4013112211,
4021012110,
4022123122,
400000200200100111200100200100,
4011304030,
40002010201011201020,
22222,
202000200000200100200200100000,
22102020102121112222,
100200100200102020102020102020,
1011114010,
30000010201022112020,
#GOGOEND
4022022022,
0220220220,
#GOGOSTART
20112010201120102010,
100100100100200000000100200100200000400000400000000040000000,
36000,
#MEASURE 6/4
000000000000000000000000000000000000000000000000000000000000000000008
#GOGOEND
000,
#END
COURSE:Edit
LEVEL:9
BALLOON:1,36
SCOREINIT:
SCOREDIFF:
NOTESDESIGNER4:sadkay
#START
#MEASURE 5/4
#SCROLL 0.5
20001,
20001,
20001,
20001,
1102102010,
2100211220,
1000
#SCROLL 2
2000
#SCROLL 0.5
102010002210,
10000000222210102010,
1102102010,
2100211220,
1000
#SCROLL 2
2000
#SCROLL 0.5
102010002210,
20002000100021111000,
#MEASURE 3/4
#SCROLL 1
300300301111,
400011212212,
300403003004,
033202,
102012122122,
300000000300000000300000201010100000,
300300302211,
#MEASURE 4/4
2120122121121222,
3004030030040030,
3004030030040030,
4222,
#MEASURE 3/4
000000
#SCROLL 0.75
211,
#MEASURE 5/4
10102011102000201020,
100000200000200000100100100000200000000000200000100010001000,
10102011202000201020,
10102011102000201000,
#SCROLL 0.5
2022022020,
2022120220,
4022122122,
2022022020,
#SCROLL 0.75
20102010001020121020,
100200200100000200101020200100,
400000000100211,
3000
#SCROLL 1
3030003011112000,
#GOGOSTART
200000100100100000220200100200,
100000200100000100220200200000,
100000100200000200110000200000,
100000200100200111200100200000,
100000000000200200100000100000000000202000100000200000000000,
100000000000200100100000200000100000202000200000200000000000,
#GOGOEND
#SCROLL 1.5
30003030003021111000,
#GOGOSTART
#SCROLL 1
200000000000100100100000100000000000202000200000100000200000,
100000000000200200100000000000100000202000200000200000000000,
100000000000100100200000000000200000101000000000200000000000,
100000000000200200100000200000101010200000100000200000000000,
100000000000200200100000100000000000202000100000200000000000,
100000000000200100100000200000100000202000200000200000000000,
#MEASURE 4/4
#GOGOEND
#SCROLL 1.5
30330330,
#MEASURE 6/4
300000300300000300300000300000700080,
#MEASURE 5/4
#SCROLL 0.75
10102011102000201020,
10202011102000201020,
10102011202000201020,
100000100000200000100100100000200000000000200000100010001000,
10102011102000201020,
10202011102000201120,
10102011202000201020,
10102011102011222000,
#SCROLL 0.875
10102011102000201020,
10202011102010210210,
10102011102000201020,
100000100000200000100100100000200000000000200000100010001000,
10102011102000201020,
10202011102000201222,
10102011202000201020,
10102011102000201120,
#SCROLL 1.25
3033033030,
30003030003011112000,
#GOGOSTART
#SCROLL 1
200000100100100000220200100200,
100000200100000100220200200000,
100000100200000200110000200000,
100000200100200111200100200000,
100000000000200200100000100000000000202000100000200000000000,
100000000000200100100000200000100000202000200000200000000000,
220000201010200000220000200000,
220000201010200100220200200000,
200200100000200000200000100000200200100200102020100200100200,
100000200000100000200000100200200200100010001000200010001000,
10002110202011201020,
10002210102022112000,
#GOGOEND
#SCROLL 1.25
3033033033,
0330330330,
#GOGOSTART
#SCROLL 1.5
30003030433030003030,
303030300000300000000300300000300000400000300000000300000000,
39000,
#MEASURE 6/4
000000000000000000000000000000000000800000000000
#SCROLL 1
400000003000000030000
#GOGOEND
000,
#SCROLL 3
3,
#END