Files
2025-06-11 19:53:16 -04:00

1499 lines
14 KiB
Plaintext

TITLE:Maelstrom
SUBTITLE:--tzechi
TITLEJA:マエストロム
SUBTITLEJA:tzechi
WAVE:Maelstrom.ogg
BPM:180
OFFSET:-3.352
DEMOSTART:46.685
MAKER:Colin
COURSE:Easy
LEVEL:2
SCOREINIT:
SCOREDIFF:
NOTESDESIGNER0:Colin
#START
#MEASURE 2/4
00,
#MEASURE 4/4
2,
2,
2,
0020,
2,
2,
2,
2,
1010,
1,
2,
1,
1,
2,
2020,
2,
10010002,
0010,
00000002,
0020,
10020020,
,
1,
1020,
10010000,
,
2020,
2,
10020000,
,
2020,
1,
#GOGOSTART
3030,
3330,
3030,
3330,
2020,
2220,
2020,
5,
#GOGOEND
80030000,
#GOGOSTART
30030000,
2020,
2220,
1010,
1110,
2020,
2220,
1,
2220,
1010,
2020,
1,
1010,
1,
2220,
1010,
1,
1020,
1010,
1,
2,
2020,
1,
#GOGOEND
2020,
#GOGOSTART
2,
1010,
1,
2020,
2,
1110,
2020,
1010,
1,
2020,
2,
1010,
1,
2220,
2020,
#GOGOEND
#SCROLL 1
1
#SCROLL 0.997768
0
#SCROLL 0.995536
0
#SCROLL 0.993304
0
#SCROLL 0.991071
00
#SCROLL 0.986607
00,
#SCROLL 0.982143
2
#SCROLL 0.979911
0
#SCROLL 0.977679
0
#SCROLL 0.975446
0
#SCROLL 0.973214
00
#SCROLL 0.96875
00,
#SCROLL 0.964286
1
#SCROLL 0.962054
0
#SCROLL 0.959821
0
#SCROLL 0.957589
0
#SCROLL 0.955357
20
#SCROLL 0.950893
00,
#SCROLL 0.946429
1
#SCROLL 0.944196
0
#SCROLL 0.941964
0
#SCROLL 0.939732
0
#SCROLL 0.9375
00
#SCROLL 0.933036
00,
#SCROLL 0.928571
1
#SCROLL 0.926339
0
#SCROLL 0.924107
0
#SCROLL 0.921875
0
#SCROLL 0.919643
00
#SCROLL 0.915179
0
#SCROLL 0.912946
0,
#SCROLL 0.910714
2
#SCROLL 0.908482
0
#SCROLL 0.90625
0
#SCROLL 0.904018
0
#SCROLL 0.901786
00
#SCROLL 0.897321
0
#SCROLL 0.895089
0,
#SCROLL 0.892857
1
#SCROLL 0.890625
0
#SCROLL 0.888393
0
#SCROLL 0.886161
0
#SCROLL 0.883929
20
#SCROLL 0.879464
0
#SCROLL 0.877232
0,
#SCROLL 0.875
1
#SCROLL 0.872768
0
#SCROLL 0.870536
0
#SCROLL 0.868304
0
#SCROLL 0.866071
10
#SCROLL 0.861607
00,
#SCROLL 0.857143
2
#SCROLL 0.854911
0
#SCROLL 0.852679
0
#SCROLL 0.850446
0
#SCROLL 0.848214
00
#SCROLL 0.84375
00,
#SCROLL 0.839286
2
#SCROLL 0.837054
0
#SCROLL 0.834821
0
#SCROLL 0.832589
0
#SCROLL 0.830357
00
#SCROLL 0.825893
00,
#SCROLL 0.821429
2
#SCROLL 0.819196
0
#SCROLL 0.816964
0
#SCROLL 0.814732
0
#SCROLL 0.8125
00
#SCROLL 0.808036
00,
#SCROLL 0.803571
2
#SCROLL 0.801339
0
#SCROLL 0.799107
0
#SCROLL 0.796875
0
#SCROLL 0.794643
00
#SCROLL 0.790179
00,
#SCROLL 0.785714
2
#SCROLL 0.783482
0
#SCROLL 0.78125
0
#SCROLL 0.779018
0
#SCROLL 0.776786
00
#SCROLL 0.772321
00,
#SCROLL 0.767857
2
#SCROLL 0.765625
0
#SCROLL 0.763393
0
#SCROLL 0.761161
0
#SCROLL 0.758929
00
#SCROLL 0.754464
00,
#SCROLL 0.75
2
#SCROLL 0.747768
0
#SCROLL 0.745536
0
#SCROLL 0.743304
0
#SCROLL 0.741071
00
#SCROLL 0.736607
00,
#SCROLL 0.732143
2
#SCROLL 0.729911
0
#SCROLL 0.727679
0
#SCROLL 0.725446
0
#SCROLL 0.723214
00
#SCROLL 0.71875
00,
#SCROLL 0.714286
2
#SCROLL 0.709821
0
#SCROLL 0.705357
0
#SCROLL 0.700893
0,
#SCROLL 0.696429
0
#SCROLL 0.691964
0
#SCROLL 0.6875
0
#SCROLL 0.683036
0,
#SCROLL 0.678571
2
#SCROLL 0.674107
0
#SCROLL 0.669643
0
#SCROLL 0.665179
0,
#SCROLL 0.660714
0
#SCROLL 0.65625
0
#SCROLL 0.651786
0
#SCROLL 0.647321
0,
#SCROLL 0.642857
2
#SCROLL 0.638393
0
#SCROLL 0.633929
00,
#SCROLL 0.625
20
#SCROLL 0.616071
00,
#SCROLL 0.607143
2
#SCROLL 0.602679
0
#SCROLL 0.598214
00,
#SCROLL 0.589286
20
#SCROLL 0.580357
20,
#SCROLL 0.571429
2
#SCROLL 0.566964
0
#SCROLL 0.5625
00,
#SCROLL 0.553571
2
#SCROLL 0.549107
0
#SCROLL 0.544643
00,
#SCROLL 0.535714
2
#SCROLL 0.53125
0
#SCROLL 0.526786
00,
#SCROLL 0.517857
20
#SCROLL 0.508929
00,
#SCROLL 0.5
2,
#END
COURSE:Normal
LEVEL:3
SCOREINIT:
SCOREDIFF:
NOTESDESIGNER1:Colin
#START
#MEASURE 2/4
00,
#MEASURE 4/4
2,
2,
2,
0020,
2,
2,
2,
2,
1010,
1010,
2,
1110,
1,
2020,
2022,
2020,
10010002,
0011,
10000002,
0022,
10020020,
0022,
1010,
10002011,
10010002,
0011,
2020,
2022,
10020000,
1010,
2022,
1010,
#GOGOSTART
3230,
3330,
3232,
3330,
20222020,
20222020,
2021,
5,
#GOGOEND
80030030,
#GOGOSTART
30030000,
2220,
20222000,
1110,
10111000,
2220,
20222020,
1010,
2220,
1110,
2022,
1010,
10111010,
1020,
2220,
1011,
1010,
1120,
1010,
1110,
2020,
2220,
1010,
#GOGOEND
2022,
#GOGOSTART
2020,
1210,
1020,
2220,
2020,
1110,
2220,
1011,
1020,
2220,
2020,
1110,
1010,
2220,
2220,
#GOGOEND
#SCROLL 1
1
#SCROLL 0.997768
0
#SCROLL 0.995536
0
#SCROLL 0.993304
0
#SCROLL 0.991071
20
#SCROLL 0.986607
00,
#SCROLL 0.982143
2
#SCROLL 0.979911
0
#SCROLL 0.977679
0
#SCROLL 0.975446
0
#SCROLL 0.973214
00
#SCROLL 0.96875
00,
#SCROLL 0.964286
1
#SCROLL 0.962054
0
#SCROLL 0.959821
2
#SCROLL 0.957589
0
#SCROLL 0.955357
20
#SCROLL 0.950893
00,
#SCROLL 0.946429
1
#SCROLL 0.944196
0
#SCROLL 0.941964
0
#SCROLL 0.939732
0
#SCROLL 0.9375
20
#SCROLL 0.933036
00,
#SCROLL 0.928571
1
#SCROLL 0.926339
0
#SCROLL 0.924107
0
#SCROLL 0.921875
0
#SCROLL 0.919643
20
#SCROLL 0.915179
0
#SCROLL 0.912946
0,
#SCROLL 0.910714
2
#SCROLL 0.908482
0
#SCROLL 0.90625
0
#SCROLL 0.904018
0
#SCROLL 0.901786
00
#SCROLL 0.897321
0
#SCROLL 0.895089
0,
#SCROLL 0.892857
1
#SCROLL 0.890625
0
#SCROLL 0.888393
0
#SCROLL 0.886161
0
#SCROLL 0.883929
20
#SCROLL 0.879464
0
#SCROLL 0.877232
0,
#SCROLL 0.875
1
#SCROLL 0.872768
0
#SCROLL 0.870536
1
#SCROLL 0.868304
0
#SCROLL 0.866071
10
#SCROLL 0.861607
11,
#SCROLL 0.857143
2
#SCROLL 0.854911
0
#SCROLL 0.852679
0
#SCROLL 0.850446
0
#SCROLL 0.848214
00
#SCROLL 0.84375
00,
#SCROLL 0.839286
2
#SCROLL 0.837054
0
#SCROLL 0.834821
0
#SCROLL 0.832589
0
#SCROLL 0.830357
00
#SCROLL 0.825893
00,
#SCROLL 0.821429
2
#SCROLL 0.819196
0
#SCROLL 0.816964
0
#SCROLL 0.814732
0
#SCROLL 0.8125
00
#SCROLL 0.808036
00,
#SCROLL 0.803571
2
#SCROLL 0.801339
0
#SCROLL 0.799107
0
#SCROLL 0.796875
0
#SCROLL 0.794643
00
#SCROLL 0.790179
00,
#SCROLL 0.785714
2
#SCROLL 0.783482
0
#SCROLL 0.78125
0
#SCROLL 0.779018
0
#SCROLL 0.776786
00
#SCROLL 0.772321
00,
#SCROLL 0.767857
2
#SCROLL 0.765625
0
#SCROLL 0.763393
0
#SCROLL 0.761161
0
#SCROLL 0.758929
00
#SCROLL 0.754464
00,
#SCROLL 0.75
2
#SCROLL 0.747768
0
#SCROLL 0.745536
0
#SCROLL 0.743304
0
#SCROLL 0.741071
00
#SCROLL 0.736607
00,
#SCROLL 0.732143
2
#SCROLL 0.729911
0
#SCROLL 0.727679
0
#SCROLL 0.725446
0
#SCROLL 0.723214
00
#SCROLL 0.71875
00,
#SCROLL 0.714286
2
#SCROLL 0.709821
0
#SCROLL 0.705357
0
#SCROLL 0.700893
0,
#SCROLL 0.696429
0
#SCROLL 0.691964
0
#SCROLL 0.6875
0
#SCROLL 0.683036
0,
#SCROLL 0.678571
2
#SCROLL 0.674107
0
#SCROLL 0.669643
0
#SCROLL 0.665179
0,
#SCROLL 0.660714
0
#SCROLL 0.65625
0
#SCROLL 0.651786
0
#SCROLL 0.647321
0,
#SCROLL 0.642857
2
#SCROLL 0.638393
0
#SCROLL 0.633929
00,
#SCROLL 0.625
20
#SCROLL 0.616071
00,
#SCROLL 0.607143
2
#SCROLL 0.602679
0
#SCROLL 0.598214
00,
#SCROLL 0.589286
20
#SCROLL 0.580357
20,
#SCROLL 0.571429
2
#SCROLL 0.566964
0
#SCROLL 0.5625
00,
#SCROLL 0.553571
2
#SCROLL 0.549107
0
#SCROLL 0.544643
00,
#SCROLL 0.535714
2
#SCROLL 0.53125
0
#SCROLL 0.526786
00,
#SCROLL 0.517857
20
#SCROLL 0.508929
00,
#SCROLL 0.5
2,
#END
COURSE:Hard
LEVEL:5
BALLOON:32
SCOREINIT:
SCOREDIFF:
NOTESDESIGNER2:Colin
#START
#MEASURE 2/4
10010020,
#MEASURE 4/4
20000022,
0212,
1101,
0000000020020020,
2000000020020020,
2000000020020020,
2000000020020020,
2122,
2000000010020020,
1000000010020020,
1010,
1021,
20220000,
,
20120020,
5008,
30030012,
01110011,
22111012,
02221010,
2000222010102000,
22112020,
22111012,
2020100010010010,
20120012,
12221020,
11111020,
12121010,
1020222020002000,
22112020,
22111010,
12221020,
#GOGOSTART
2001002000201110,
2001002000222020,
2001002000201110,
2001002000102220,
2001002001002220,
2001002001002220,
1001002000102022,
2000200020102022,
#GOGOEND
2002002000102000,
#GOGOSTART
2001002000201110,
2001002000222020,
2001002000102220,
2001002001002220,
2001002001002022,
2001002001002000,
2222,
2,
2022200010111010,
20210122,
10120120,
10120022,
22121111,
1000202022202020,
2220222220202000,
1010201020001110,
1001001020010020,
7,
,
8002002220102222,
21222010,
12022020,
30030030,
#GOGOEND
3,
#GOGOSTART
1010200010222020,
1000200011102020,
1000200010102220,
11201120,
11210120,
2220200022202000,
10201122,
2001002000201010,
2001002000202010,
2001002000102000,
2001002001002000,
2001002001002222,
2001002001002220,
2001002001002020,
2022202020202020,
#GOGOEND
#SCROLL 1
1
#SCROLL 0.997768
0
#SCROLL 0.995536
2
#SCROLL 0.993304
0
#SCROLL 0.991071
10
#SCROLL 0.986607
20,
#SCROLL 0.982143
1
#SCROLL 0.979911
0
#SCROLL 0.977679
2
#SCROLL 0.975446
0
#SCROLL 0.973214
11
#SCROLL 0.96875
20,
#SCROLL 0.964286
1
#SCROLL 0.962054
0
#SCROLL 0.959821
2
#SCROLL 0.957589
0
#SCROLL 0.955357
10
#SCROLL 0.950893
20,
#SCROLL 0.946429
1
#SCROLL 0.944196
0
#SCROLL 0.941964
2
#SCROLL 0.939732
0
#SCROLL 0.9375
11
#SCROLL 0.933036
20,
#SCROLL 0.928571
1
#SCROLL 0.926339
0
#SCROLL 0.924107
2
#SCROLL 0.921875
0
#SCROLL 0.919643
20
#SCROLL 0.915179
2
#SCROLL 0.912946
0,
#SCROLL 0.910714
1
#SCROLL 0.908482
0
#SCROLL 0.90625
2
#SCROLL 0.904018
0
#SCROLL 0.901786
20
#SCROLL 0.897321
2
#SCROLL 0.895089
0,
#SCROLL 0.892857
1
#SCROLL 0.890625
0
#SCROLL 0.888393
2
#SCROLL 0.886161
0
#SCROLL 0.883929
20
#SCROLL 0.879464
2
#SCROLL 0.877232
0,
#SCROLL 0.875
1
#SCROLL 0.872768
0
#SCROLL 0.870536
2
#SCROLL 0.868304
0
#SCROLL 0.866071
20
#SCROLL 0.861607
20,
#SCROLL 0.857143
1
#SCROLL 0.854911
0
#SCROLL 0.852679
0
#SCROLL 0.850446
0
#SCROLL 0.848214
00
#SCROLL 0.84375
00,
#SCROLL 0.839286
1
#SCROLL 0.837054
0
#SCROLL 0.834821
0
#SCROLL 0.832589
0
#SCROLL 0.830357
00
#SCROLL 0.825893
00,
#SCROLL 0.821429
1
#SCROLL 0.819196
0
#SCROLL 0.816964
0
#SCROLL 0.814732
0
#SCROLL 0.8125
00
#SCROLL 0.808036
00,
#SCROLL 0.803571
1
#SCROLL 0.801339
0
#SCROLL 0.799107
0
#SCROLL 0.796875
0
#SCROLL 0.794643
00
#SCROLL 0.790179
00,
#SCROLL 0.785714
1
#SCROLL 0.783482
0
#SCROLL 0.78125
0
#SCROLL 0.779018
0
#SCROLL 0.776786
00
#SCROLL 0.772321
00,
#SCROLL 0.767857
1
#SCROLL 0.765625
0
#SCROLL 0.763393
0
#SCROLL 0.761161
0
#SCROLL 0.758929
00
#SCROLL 0.754464
00,
#SCROLL 0.75
1
#SCROLL 0.747768
0
#SCROLL 0.745536
0
#SCROLL 0.743304
0
#SCROLL 0.741071
00
#SCROLL 0.736607
00,
#SCROLL 0.732143
1
#SCROLL 0.729911
0
#SCROLL 0.727679
0
#SCROLL 0.725446
0
#SCROLL 0.723214
00
#SCROLL 0.71875
00,
#SCROLL 0.714286
2
#SCROLL 0.709821
0
#SCROLL 0.705357
0
#SCROLL 0.700893
0,
#SCROLL 0.696429
2
#SCROLL 0.691964
0
#SCROLL 0.6875
0
#SCROLL 0.683036
0,
#SCROLL 0.678571
2
#SCROLL 0.674107
0
#SCROLL 0.669643
0
#SCROLL 0.665179
0,
#SCROLL 0.660714
2
#SCROLL 0.65625
0
#SCROLL 0.651786
0
#SCROLL 0.647321
0,
#SCROLL 0.642857
2
#SCROLL 0.638393
0
#SCROLL 0.633929
00,
#SCROLL 0.625
20
#SCROLL 0.616071
00,
#SCROLL 0.607143
2
#SCROLL 0.602679
0
#SCROLL 0.598214
00,
#SCROLL 0.589286
20
#SCROLL 0.580357
20,
#SCROLL 0.571429
2
#SCROLL 0.566964
0
#SCROLL 0.5625
00,
#SCROLL 0.553571
2
#SCROLL 0.549107
0
#SCROLL 0.544643
00,
#SCROLL 0.535714
2
#SCROLL 0.53125
0
#SCROLL 0.526786
00,
#SCROLL 0.517857
20
#SCROLL 0.508929
00,
#SCROLL 0.5
2,
#END
COURSE:Oni
LEVEL:8
SCOREINIT:
SCOREDIFF:
NOTESDESIGNER3:Colin
#START
#MEASURE 2/4
10020010,
#MEASURE 4/4
20202022,
1000202220002000,
1121,
2000100010010010,
2000200010010010,
2000200010010010,
2000200010010010,
2121,
2000200010020020,
1000200010020020,
1212,
1110200010002000,
10122020,
2222,
22222222,
2111211121112111,
2000112000102020,
11121111,
22121012,
2020102020020010,
2010112010102020,
12112120,
22121012,
2020102010010020,
1020112010221020,
1020112010221020,
1020112010221020,
1020112010221020,
1020112010221120,
1020112011221020,
1022112010221120,
1022202010020020,
#GOGOSTART
4021012010221111,
2021012010112211,
2021012012112111,
2021012011012111,
2021012011012111,
2021012011012111,
2021012021012111,
2010201120102222,
#GOGOEND
2021012022221111,
#GOGOSTART
2021012010221111,
2021012010112211,
2021012012112111,
2021012011012111,
2021012011012111,
2021012011012111,
2011201022112020,
2011201020112010,
1022222211112111,
2010201110102020,
2010201120102010,
2011201022112020,
22121212,
1010122212221222,
2222121212121111,
1012221122221122,
1021011020210110,
1111221121112222,
1011211122201020,
2012012020122111,
2012012020201010,
2012012120122212,
200000100200000100200200200100200000200020002000,
#GOGOEND
2012021011212211,
#GOGOSTART
2012021011212211,
2021012012202211,
2021012011012111,
2021012011012111,
2021012011012111,
2021012011012111,
2011201022112010,
2021011010222111,
2021012012221111,
2011012011112111,
2021012011012111,
2021012011012111,
2021012011012211,
2021012011012211,
2010201120102010,
#GOGOEND
#SCROLL 1
2
#SCROLL 0.997768
2
#SCROLL 0.995536
1
#SCROLL 0.993304
2
#SCROLL 0.991071
10
#SCROLL 0.986607
20,
#SCROLL 0.982143
2
#SCROLL 0.979911
2
#SCROLL 0.977679
1
#SCROLL 0.975446
2
#SCROLL 0.973214
10
#SCROLL 0.96875
20,
#SCROLL 0.964286
2
#SCROLL 0.962054
2
#SCROLL 0.959821
1
#SCROLL 0.957589
2
#SCROLL 0.955357
10
#SCROLL 0.950893
20,
#SCROLL 0.946429
2
#SCROLL 0.944196
2
#SCROLL 0.941964
1
#SCROLL 0.939732
2
#SCROLL 0.9375
10
#SCROLL 0.933036
20,
#SCROLL 0.928571
1
#SCROLL 0.926339
2
#SCROLL 0.924107
1
#SCROLL 0.921875
1
#SCROLL 0.919643
10
#SCROLL 0.915179
1
#SCROLL 0.912946
2,
#SCROLL 0.910714
1
#SCROLL 0.908482
2
#SCROLL 0.90625
1
#SCROLL 0.904018
2
#SCROLL 0.901786
20
#SCROLL 0.897321
1
#SCROLL 0.895089
2,
#SCROLL 0.892857
1
#SCROLL 0.890625
2
#SCROLL 0.888393
1
#SCROLL 0.886161
2
#SCROLL 0.883929
10
#SCROLL 0.879464
1
#SCROLL 0.877232
2,
#SCROLL 0.875
1
#SCROLL 0.872768
2
#SCROLL 0.870536
2
#SCROLL 0.868304
2
#SCROLL 0.866071
10
#SCROLL 0.861607
10,
#SCROLL 0.857143
1
#SCROLL 0.854911
2
#SCROLL 0.852679
2
#SCROLL 0.850446
2
#SCROLL 0.848214
10
#SCROLL 0.84375
10,
#SCROLL 0.839286
2
#SCROLL 0.837054
2
#SCROLL 0.834821
1
#SCROLL 0.832589
1
#SCROLL 0.830357
10
#SCROLL 0.825893
10,
#SCROLL 0.821429
2
#SCROLL 0.819196
2
#SCROLL 0.816964
1
#SCROLL 0.814732
2
#SCROLL 0.8125
10
#SCROLL 0.808036
10,
#SCROLL 0.803571
2
#SCROLL 0.801339
2
#SCROLL 0.799107
1
#SCROLL 0.796875
2
#SCROLL 0.794643
10
#SCROLL 0.790179
10,
#SCROLL 0.785714
2
#SCROLL 0.783482
2
#SCROLL 0.78125
1
#SCROLL 0.779018
1
#SCROLL 0.776786
20
#SCROLL 0.772321
20,
#SCROLL 0.767857
2
#SCROLL 0.765625
2
#SCROLL 0.763393
1
#SCROLL 0.761161
1
#SCROLL 0.758929
20
#SCROLL 0.754464
20,
#SCROLL 0.75
2
#SCROLL 0.747768
2
#SCROLL 0.745536
1
#SCROLL 0.743304
2
#SCROLL 0.741071
10
#SCROLL 0.736607
10,
#SCROLL 0.732143
2
#SCROLL 0.729911
2
#SCROLL 0.727679
1
#SCROLL 0.725446
2
#SCROLL 0.723214
10
#SCROLL 0.71875
10,
#SCROLL 0.714286
1
#SCROLL 0.709821
1
#SCROLL 0.705357
1
#SCROLL 0.700893
2,
#SCROLL 0.696429
2
#SCROLL 0.691964
2
#SCROLL 0.6875
2
#SCROLL 0.683036
1,
#SCROLL 0.678571
1
#SCROLL 0.674107
1
#SCROLL 0.669643
1
#SCROLL 0.665179
1,
#SCROLL 0.660714
2
#SCROLL 0.65625
2
#SCROLL 0.651786
2
#SCROLL 0.647321
2,
#SCROLL 0.642857
1
#SCROLL 0.638393
1
#SCROLL 0.633929
20,
#SCROLL 0.625
10
#SCROLL 0.616071
10,
#SCROLL 0.607143
1
#SCROLL 0.602679
1
#SCROLL 0.598214
20,
#SCROLL 0.589286
20
#SCROLL 0.580357
20,
#SCROLL 0.571429
1
#SCROLL 0.566964
1
#SCROLL 0.5625
20,
#SCROLL 0.553571
1
#SCROLL 0.549107
1
#SCROLL 0.544643
20,
#SCROLL 0.535714
1
#SCROLL 0.53125
1
#SCROLL 0.526786
20,
#SCROLL 0.517857
10
#SCROLL 0.508929
20,
#SCROLL 0.5
2,
#END