generated from DragonRatTiger/Custom-Charts
1355 lines
15 KiB
Plaintext
1355 lines
15 KiB
Plaintext
TITLE:Soulwind
|
|
SUBTITLE:--HyuN
|
|
PREIMAGE:Soulwind.jpg
|
|
BPM:200
|
|
WAVE:Soulwind.ogg
|
|
OFFSET:1.736
|
|
DEMOSTART:107.464
|
|
MAKER:DiamondN1nja, GuivenYong, Colin
|
|
|
|
COURSE:Edit
|
|
LEVEL:10
|
|
BALLOON:
|
|
SCOREINIT:
|
|
SCOREDIFF:
|
|
NOTESDESIGNER4:DiamondN1nja
|
|
|
|
|
|
#START
|
|
|
|
|
|
#BARLINEOFF
|
|
,
|
|
,
|
|
#BARLINEON
|
|
2,
|
|
,
|
|
2,
|
|
,
|
|
2,
|
|
,
|
|
2,
|
|
2000000022222222,
|
|
10120120,
|
|
2020202020222111,
|
|
10110101,
|
|
01110122,
|
|
10120120,
|
|
2020202020222111,
|
|
22120102,
|
|
2211211122112212,
|
|
10220220,
|
|
2020202020222111,
|
|
10110121,
|
|
01210122,
|
|
22122121,
|
|
2020101111111111,
|
|
1122201122201122,
|
|
100000200100000200100200202020100100100100100000,
|
|
|
|
#GOGOSTART
|
|
3011211122112111,
|
|
1022122212121121,
|
|
1122122222112221,
|
|
2011221122022020,
|
|
1011222111221222,
|
|
2011221222212221,
|
|
2022111222012020,
|
|
1122112222112221,
|
|
2011221220221221,
|
|
2011221220120120,
|
|
32230303,
|
|
0020300011221122,
|
|
2011102010102010,
|
|
1020111020111010,
|
|
1122122211221222,
|
|
1112111222112211,
|
|
|
|
#GOGOEND
|
|
11221122,
|
|
11221122,
|
|
11221122,
|
|
1010201020102211,
|
|
11221122,
|
|
11221122,
|
|
11221122,
|
|
11221122,
|
|
100100202020100100202020,
|
|
100100202020100100222222,
|
|
100100202020100100202020,
|
|
100100201010201010222222,
|
|
100100202020100100202020,
|
|
100100202020100100222222,
|
|
100100202020100100202020,
|
|
2000000022112111,
|
|
|
|
#GOGOSTART
|
|
100220100200100220100200,
|
|
100220100200100220100200,
|
|
100220100200100220100200,
|
|
100220100200100220200100,
|
|
100220100200100220100200,
|
|
100220100200100220100200,
|
|
100220100200100220100200,
|
|
1020102022112111,
|
|
100220100200100220100200,
|
|
100220100200100220100200,
|
|
100220100200100220100200,
|
|
100220100200100220200100,
|
|
22122121,
|
|
1111111111111111,
|
|
10230230,
|
|
100000100000200000200000202020100100200200100000,
|
|
3011211122112111,
|
|
1022122212121121,
|
|
1122122222112221,
|
|
2011221122022020,
|
|
1011222111221222,
|
|
2011221222212221,
|
|
2022111222012020,
|
|
1122112222112221,
|
|
2011221220221221,
|
|
2011221220120120,
|
|
32230303,
|
|
0020300011221122,
|
|
2011102010102010,
|
|
1020111020111010,
|
|
1122122211221222,
|
|
1112111222112211,
|
|
|
|
#GOGOEND
|
|
#SCROLL 3
|
|
500080
|
|
#SCROLL 1
|
|
22,
|
|
|
|
#GOGOSTART
|
|
3011211122112111,
|
|
1022122212121121,
|
|
1122122222112221,
|
|
2011221122022020,
|
|
1011222111221222,
|
|
2011221222212221,
|
|
2022111222012020,
|
|
1122112222112221,
|
|
2011221220221221,
|
|
2011221220120120,
|
|
32230303,
|
|
0020302011221112,
|
|
2011102010102010,
|
|
1020111020111010,
|
|
1122122212221222,
|
|
2211122122121211,
|
|
100220100200100220100200,
|
|
100220100200100220100200,
|
|
100220100200100220100200,
|
|
100220100200100220200100,
|
|
100220100200100220100200,
|
|
100220100200100220100200,
|
|
100220100200100220100200,
|
|
1020102022112111,
|
|
100220100200100220100200,
|
|
100220100200100220100200,
|
|
100220100200100220100200,
|
|
100220100200100220200100,
|
|
22122121,
|
|
1111111111111111,
|
|
11211211,
|
|
2010201022221111,
|
|
|
|
#GOGOEND
|
|
11221122,
|
|
#SCROLL 0.95
|
|
11221122,
|
|
#SCROLL 0.9
|
|
11221122,
|
|
#SCROLL 0.85
|
|
1010201020102211,
|
|
#SCROLL 0.8
|
|
11221122,
|
|
#SCROLL 0.75
|
|
11221122,
|
|
#SCROLL 0.7
|
|
11221122,
|
|
#SCROLL 0.65
|
|
11221122,
|
|
#SCROLL 0.6
|
|
2,
|
|
,
|
|
#SCROLL 0.5
|
|
2,
|
|
,
|
|
#SCROLL 0.4
|
|
2,
|
|
,
|
|
#SCROLL 0.3
|
|
2,
|
|
#SCROLL 0.25
|
|
20000000
|
|
#SCROLL 1
|
|
22222222,
|
|
|
|
|
|
#END
|
|
|
|
|
|
COURSE:Oni
|
|
LEVEL:10
|
|
BALLOON:6,6
|
|
SCOREINIT:
|
|
SCOREDIFF:
|
|
NOTESDESIGNER3:GuivenYong
|
|
|
|
|
|
#START
|
|
|
|
|
|
#MEASURE 8/4
|
|
#BARLINEOFF
|
|
5800000000000000,
|
|
|
|
#BRANCHSTART r,2,2
|
|
|
|
#N
|
|
#BARLINEON
|
|
#SCROLL 0.5
|
|
2111211211121111,
|
|
2111211211222121,
|
|
2111211211121111,
|
|
201010102010101020000000
|
|
#SCROLL 0.555
|
|
2
|
|
#SCROLL 0.61
|
|
2
|
|
#SCROLL 0.665
|
|
2
|
|
#SCROLL 0.72
|
|
2
|
|
#SCROLL 0.775
|
|
2
|
|
#SCROLL 0.83
|
|
2
|
|
#SCROLL 0.885
|
|
2
|
|
#SCROLL 0.94
|
|
2,
|
|
#MEASURE 4/4
|
|
#SCROLL 1
|
|
10121020,
|
|
1010202010221211,
|
|
10121020,
|
|
11121122,
|
|
10121020,
|
|
1010202010221211,
|
|
10121020,
|
|
1111222212121222,
|
|
10201120,
|
|
1010202010221211,
|
|
10121020,
|
|
11201122,
|
|
2110102110102110,
|
|
1021111121111111,
|
|
1011201121112122,
|
|
2022002212221122,
|
|
#GOGOSTART
|
|
1000101120102110,
|
|
1010211120102010,
|
|
1001201012221010,
|
|
2011201022022022,
|
|
1011211010112010,
|
|
2011211020012022,
|
|
1000201120220220,
|
|
1011201022222222,
|
|
1000101120102110,
|
|
1010211120120222,
|
|
1110104000400030,
|
|
0011201022022222,
|
|
2110102110102110,
|
|
1021101021101010,
|
|
2011201120112121,
|
|
2011201022222222,
|
|
#MEASURE 8/4
|
|
#GOGOEND
|
|
1
|
|
#SCROLL 0.5
|
|
111211211121111,
|
|
2111211211222121,
|
|
2111211211121111,
|
|
2111211121112112,
|
|
#MEASURE 4/4
|
|
100
|
|
#SCROLL 0.75
|
|
111100111,
|
|
100111222111,
|
|
100111100111,
|
|
100111211211,
|
|
100111100111,
|
|
100111100111,
|
|
100111222111,
|
|
20000000
|
|
#SCROLL 0.555
|
|
2
|
|
#SCROLL 0.61
|
|
2
|
|
#SCROLL 0.665
|
|
2
|
|
#SCROLL 0.72
|
|
2
|
|
#SCROLL 0.775
|
|
2
|
|
#SCROLL 0.83
|
|
2
|
|
#SCROLL 0.885
|
|
2
|
|
#SCROLL 0.94
|
|
2,
|
|
#GOGOSTART
|
|
#SCROLL 1
|
|
1020112010201120,
|
|
1020112010201120,
|
|
2010112020101120,
|
|
2010112020221120,
|
|
1020112010201120,
|
|
1020112010201120,
|
|
2010112020101120,
|
|
2010112022221121,
|
|
1020112010201120,
|
|
1020112010201120,
|
|
2010112020101120,
|
|
2010112020221120,
|
|
2211102211102211,
|
|
1022111022221222,
|
|
11112121,
|
|
7000008022221222,
|
|
1000101120102110,
|
|
1010211120102010,
|
|
1001201012221010,
|
|
2011201022022022,
|
|
1011211010112010,
|
|
2011211020012022,
|
|
1000201120220220,
|
|
1011201022222222,
|
|
1000101120102110,
|
|
1010211120120222,
|
|
1110104000400030,
|
|
0011201022022222,
|
|
2110102110102110,
|
|
1021101021101010,
|
|
2011201120112121,
|
|
2011201022222222,
|
|
#GOGOEND
|
|
1000101011111111,
|
|
#GOGOSTART
|
|
1000101120102110,
|
|
1010211120102010,
|
|
1001201012221010,
|
|
2011201022022022,
|
|
1011211010112010,
|
|
2011211020012022,
|
|
1000201120220220,
|
|
1011201022222222,
|
|
1000101120102110,
|
|
1010211120120222,
|
|
1110104000400030,
|
|
0011201022022222,
|
|
2120102120102120,
|
|
1021201021201010,
|
|
2011221122112121,
|
|
2011222022222222,
|
|
1020112010201120,
|
|
1020112010201120,
|
|
2010112020101120,
|
|
2010112020221120,
|
|
1020112010201120,
|
|
1020112010201120,
|
|
2010112020101120,
|
|
2010112022221121,
|
|
1020112010201120,
|
|
1020112010201120,
|
|
2010112020101120,
|
|
2010112020221120,
|
|
2211102211102211,
|
|
1022111022221222,
|
|
11112121,
|
|
7000008022221222,
|
|
#GOGOEND
|
|
11112112,
|
|
11121112,
|
|
#SCROLL 0.9
|
|
21112112,
|
|
11222121,
|
|
#SCROLL 0.8
|
|
21112112,
|
|
11121112,
|
|
#SCROLL 0.7
|
|
21112112,
|
|
21121122,
|
|
#MEASURE 8/4
|
|
#SCROLL 0.6
|
|
2111211211121111,
|
|
#SCROLL 0.5
|
|
2111211211222121,
|
|
#SCROLL 0.4
|
|
2111211211121111,
|
|
201010201010101020000000
|
|
#SCROLL 1.15
|
|
2
|
|
#SCROLL 1.1
|
|
2
|
|
#SCROLL 1.05
|
|
2
|
|
#SCROLL 1
|
|
2
|
|
#SCROLL 0.95
|
|
2
|
|
#SCROLL 0.9
|
|
2
|
|
#SCROLL 0.85
|
|
2
|
|
#SCROLL 0.8
|
|
2,
|
|
#BARLINEOFF
|
|
00,
|
|
|
|
#E
|
|
#BARLINEON
|
|
#SCROLL 0.5
|
|
2111211211121111,
|
|
2111211211222121,
|
|
2111211211121111,
|
|
201010102010101020000000
|
|
#SCROLL 0.555
|
|
2
|
|
#SCROLL 0.61
|
|
2
|
|
#SCROLL 0.665
|
|
2
|
|
#SCROLL 0.72
|
|
2
|
|
#SCROLL 0.775
|
|
2
|
|
#SCROLL 0.83
|
|
2
|
|
#SCROLL 0.885
|
|
2
|
|
#SCROLL 0.94
|
|
2,
|
|
#MEASURE 4/4
|
|
#SCROLL 1
|
|
12121212,
|
|
1010202010221212,
|
|
1010202010201120,
|
|
1010202010202022,
|
|
12121212,
|
|
1010202010221212,
|
|
1010202010201120,
|
|
1211221121212222,
|
|
1010202110104010,
|
|
2020102020221211,
|
|
2010202010221020,
|
|
1011202010112020,
|
|
2111102111102110,
|
|
1122211122211111,
|
|
2022012212112211,
|
|
200000200200100100200000202020200200100100200200,
|
|
#GOGOSTART
|
|
1010120220112112,
|
|
1011211122221211,
|
|
2010120221212111,
|
|
2011221122022122,
|
|
1011222011112120,
|
|
4011112110222111,
|
|
2110110122012010,
|
|
2010221011112222,
|
|
1010120220112211,
|
|
2010111122022211,
|
|
211100100400000400000300,
|
|
0011201122121212,
|
|
2110102111102111,
|
|
1021101022111010,
|
|
2111221121112122,
|
|
2011111122112222,
|
|
#MEASURE 8/4
|
|
#GOGOEND
|
|
1
|
|
#SCROLL 0.5
|
|
111211211121111,
|
|
2111211211222121,
|
|
2111211211121111,
|
|
2111211121112112,
|
|
#MEASURE 4/4
|
|
100
|
|
#SCROLL 0.75
|
|
111100111,
|
|
100111222111,
|
|
100111100111,
|
|
100111211211,
|
|
100111100111,
|
|
100111100111,
|
|
100111222111,
|
|
20000000
|
|
#SCROLL 0.555
|
|
1
|
|
#SCROLL 0.61
|
|
1
|
|
#SCROLL 0.665
|
|
2
|
|
#SCROLL 0.72
|
|
2
|
|
#SCROLL 0.775
|
|
2
|
|
#SCROLL 0.83
|
|
2
|
|
#SCROLL 0.885
|
|
2
|
|
#SCROLL 0.94
|
|
2,
|
|
#GOGOSTART
|
|
#SCROLL 1
|
|
1122112211221122,
|
|
1222112212221122,
|
|
2210112222101112,
|
|
2210112010221120,
|
|
1122112211221122,
|
|
1222112212221122,
|
|
2210112222101112,
|
|
2210112011112222,
|
|
1122112211221122,
|
|
1222112212221122,
|
|
2210112222101112,
|
|
2210112022222111,
|
|
2211112211112211,
|
|
1122111121111111,
|
|
2010102010101111,
|
|
200000000000000000000000202020200200100100200200,
|
|
1010120220112112,
|
|
1011211122221211,
|
|
2010120221212111,
|
|
2011221122022122,
|
|
1011222011112120,
|
|
4011112110222111,
|
|
2110110122012010,
|
|
2010221011112222,
|
|
1010120220112211,
|
|
2010111122022211,
|
|
211100100400000400000300,
|
|
0011201122121212,
|
|
2110102111102111,
|
|
1021101022111010,
|
|
2111221121112122,
|
|
2011111122112222,
|
|
#GOGOEND
|
|
1000101011112222,
|
|
#GOGOSTART
|
|
1010120220112112,
|
|
1011211122221211,
|
|
2010120221212111,
|
|
2011221122022122,
|
|
1011222011112120,
|
|
4011112110222111,
|
|
2110110122012010,
|
|
2010221011112222,
|
|
1010120220112211,
|
|
2010111122022211,
|
|
211100100400000400000300,
|
|
0011201122121212,
|
|
2110102111102111,
|
|
1021101022111010,
|
|
2111221121112122,
|
|
200000100100100100100100202020200100100100200200,
|
|
1122112211221122,
|
|
1222112212221122,
|
|
2210112222101112,
|
|
2210112010221120,
|
|
1122112211221122,
|
|
1222112212221122,
|
|
2210112222101112,
|
|
200200100000100100200000100100100100202020200000,
|
|
1122112211221122,
|
|
1222112212221122,
|
|
2210112222101112,
|
|
2210112022222111,
|
|
2211112211112211,
|
|
1122111121111111,
|
|
11212111,
|
|
200000000000000000000000100100200200202020200200,
|
|
#GOGOEND
|
|
11112112,
|
|
11121112,
|
|
#SCROLL 0.9
|
|
21112112,
|
|
11222121,
|
|
#SCROLL 0.8
|
|
21112112,
|
|
11121112,
|
|
#SCROLL 0.7
|
|
21112112,
|
|
21121122,
|
|
#MEASURE 8/4
|
|
#SCROLL 0.6
|
|
2111211211121111,
|
|
#SCROLL 0.5
|
|
2111211211222121,
|
|
#SCROLL 0.4
|
|
2111211211121111,
|
|
201010201010101020000000
|
|
#SCROLL 1.15
|
|
2
|
|
#SCROLL 1.1
|
|
2
|
|
#SCROLL 1.05
|
|
2
|
|
#SCROLL 1
|
|
2
|
|
#SCROLL 0.95
|
|
2
|
|
#SCROLL 0.9
|
|
2
|
|
#SCROLL 0.85
|
|
2
|
|
#SCROLL 0.8
|
|
2,
|
|
#BARLINEOFF
|
|
00,
|
|
|
|
#M
|
|
#BARLINEON
|
|
#SCROLL 0.5
|
|
2111211211121111,
|
|
2111211211222121,
|
|
2111211211121111,
|
|
201010102010101020000000
|
|
#SCROLL 0.555
|
|
2
|
|
#SCROLL 0.61
|
|
2
|
|
#SCROLL 0.665
|
|
2
|
|
#SCROLL 0.72
|
|
2
|
|
#SCROLL 0.775
|
|
2
|
|
#SCROLL 0.83
|
|
2
|
|
#SCROLL 0.885
|
|
2
|
|
#SCROLL 0.94
|
|
2,
|
|
#MEASURE 4/4
|
|
#SCROLL 1
|
|
12121212,
|
|
1010202010221212,
|
|
1010202010201120,
|
|
1010202010202022,
|
|
12121212,
|
|
1010202010221212,
|
|
1010202010201120,
|
|
1211221121212222,
|
|
1010202110104010,
|
|
2020102020221211,
|
|
2010202010221020,
|
|
1011202010112020,
|
|
2111102111102110,
|
|
1122211122211111,
|
|
2022012212112211,
|
|
200000200200100100200000202020200200100100200200,
|
|
#GOGOSTART
|
|
1010120220112112,
|
|
1011211122221211,
|
|
2010120221212111,
|
|
2011221122022122,
|
|
1011222011112120,
|
|
4011112110222111,
|
|
2110110122012010,
|
|
2010221011112222,
|
|
1010120220112211,
|
|
2010111122022211,
|
|
211100100400000400000300,
|
|
0011201122121212,
|
|
2110102111102111,
|
|
1021101022111010,
|
|
2111221121112122,
|
|
2011111122112222,
|
|
#MEASURE 8/4
|
|
#GOGOEND
|
|
1
|
|
#SCROLL 0.5
|
|
111211211121111,
|
|
2111211211222121,
|
|
2111211211121111,
|
|
2111211121112112,
|
|
#MEASURE 4/4
|
|
100
|
|
#SCROLL 0.75
|
|
111100111,
|
|
100111222111,
|
|
100111100111,
|
|
100111211211,
|
|
100111100111,
|
|
100111100111,
|
|
100111222111,
|
|
20000000
|
|
#SCROLL 0.555
|
|
1
|
|
#SCROLL 0.61
|
|
1
|
|
#SCROLL 0.665
|
|
2
|
|
#SCROLL 0.72
|
|
2
|
|
#SCROLL 0.775
|
|
2
|
|
#SCROLL 0.83
|
|
2
|
|
#SCROLL 0.885
|
|
2
|
|
#SCROLL 0.94
|
|
2,
|
|
#GOGOSTART
|
|
#SCROLL 1
|
|
1122112211221122,
|
|
1222112212221122,
|
|
2210112222101112,
|
|
2210112010221120,
|
|
1122112211221122,
|
|
1222112212221122,
|
|
2210112222101112,
|
|
2210112011112222,
|
|
1122112211221122,
|
|
1222112212221122,
|
|
2210112222101112,
|
|
2210112022222111,
|
|
2211112211112211,
|
|
1122111121111111,
|
|
2010102010101111,
|
|
200000000000000000000000202020200200100100200200,
|
|
1010120220112112,
|
|
1011211122221211,
|
|
2010120221212111,
|
|
2011221122022122,
|
|
1011222011112120,
|
|
4011112110222111,
|
|
2110110122012010,
|
|
2010221011112222,
|
|
1010120220112211,
|
|
2010111122022211,
|
|
211100100400000400000300,
|
|
0011201122121212,
|
|
2110102111102111,
|
|
1021101022111010,
|
|
2111221121112122,
|
|
2011111122112222,
|
|
#GOGOEND
|
|
1000101011112222,
|
|
#GOGOSTART
|
|
1010120220112112,
|
|
1011211122221211,
|
|
2010120221212111,
|
|
2011221122022122,
|
|
1011222011112120,
|
|
4011112110222111,
|
|
2110110122012010,
|
|
2010221011112222,
|
|
1010120220112211,
|
|
2010111122022211,
|
|
211100100400000400000300,
|
|
0011201122121212,
|
|
2110102111102111,
|
|
1021101022111010,
|
|
2111221121112122,
|
|
200000100100100100100100202020200100100100200200,
|
|
1122112211221122,
|
|
1222112212221122,
|
|
2210112222101112,
|
|
2210112010221120,
|
|
1122112211221122,
|
|
1222112212221122,
|
|
2210112222101112,
|
|
200200100000100100200000100100100100202020200000,
|
|
1122112211221122,
|
|
1222112212221122,
|
|
2210112222101112,
|
|
2210112022222111,
|
|
2211112211112211,
|
|
1122111121111111,
|
|
11212111,
|
|
200000000000000000000000100100200200202020200200,
|
|
#GOGOEND
|
|
11112112,
|
|
11121112,
|
|
#SCROLL 0.9
|
|
21112112,
|
|
11222121,
|
|
#SCROLL 0.8
|
|
21112112,
|
|
11121112,
|
|
#SCROLL 0.7
|
|
21112112,
|
|
21121122,
|
|
#MEASURE 8/4
|
|
#SCROLL 0.6
|
|
2111211211121111,
|
|
#SCROLL 0.5
|
|
2111211211222121,
|
|
#SCROLL 0.4
|
|
2111211211121111,
|
|
201010201010101020000000
|
|
#SCROLL 1.15
|
|
2
|
|
#SCROLL 1.1
|
|
2
|
|
#SCROLL 1.05
|
|
2
|
|
#SCROLL 1
|
|
2
|
|
#SCROLL 0.95
|
|
2
|
|
#SCROLL 0.9
|
|
2
|
|
#SCROLL 0.85
|
|
2
|
|
#SCROLL 0.8
|
|
2,
|
|
#BARLINEOFF
|
|
00,
|
|
#BRANCHEND
|
|
|
|
|
|
#END
|
|
|
|
|
|
COURSE:Hard
|
|
LEVEL:8
|
|
BALLOON:
|
|
SCOREINIT:
|
|
SCOREDIFF:
|
|
NOTESDESIGNER2:DiamondN1nja
|
|
|
|
|
|
#START
|
|
|
|
|
|
#BARLINEOFF
|
|
,
|
|
,
|
|
#BARLINEON
|
|
2,
|
|
,
|
|
2,
|
|
,
|
|
2,
|
|
,
|
|
2,
|
|
2,
|
|
10020020,
|
|
1020202020222010,
|
|
10210101,
|
|
01120122,
|
|
10020020,
|
|
1020202020222010,
|
|
21010102,
|
|
5008,
|
|
10210120,
|
|
1010201020111010,
|
|
10210101,
|
|
01220112,
|
|
21121121,
|
|
12112111,
|
|
12121212,
|
|
1011000050008000,
|
|
|
|
#GOGOSTART
|
|
4000111020111010,
|
|
10201011,
|
|
1011201020201010,
|
|
2000000020020020,
|
|
1011101010111020,
|
|
2022200020002020,
|
|
1000222010010020,
|
|
3430,
|
|
2000111020020010,
|
|
2000111020020010,
|
|
11230303,
|
|
0312,
|
|
2011102010102011,
|
|
1020101020111000,
|
|
1011200020222000,
|
|
1022202010201020,
|
|
|
|
#GOGOEND
|
|
5,
|
|
,
|
|
8,
|
|
00202022,
|
|
1,
|
|
,
|
|
1,
|
|
5008,
|
|
100111100111,
|
|
100111100000,
|
|
100111100111,
|
|
100111100100,
|
|
100111100111,
|
|
100111100000,
|
|
100111100111,
|
|
2,
|
|
|
|
#GOGOSTART
|
|
12121212,
|
|
12121212,
|
|
12121212,
|
|
12121210,
|
|
12121212,
|
|
12121212,
|
|
12121212,
|
|
12121211,
|
|
12121212,
|
|
12121212,
|
|
12121212,
|
|
12121210,
|
|
12212212,
|
|
12212210,
|
|
30030030,
|
|
3058,
|
|
4000111020111010,
|
|
10201011,
|
|
1011201020201010,
|
|
2000000020020020,
|
|
1011101010111020,
|
|
2022200020002020,
|
|
1000222010010020,
|
|
3430,
|
|
2000111020020010,
|
|
2000111020020010,
|
|
11230303,
|
|
0312,
|
|
2011102010102011,
|
|
1020101020111000,
|
|
1011200020222000,
|
|
1022202010201020,
|
|
|
|
#GOGOEND
|
|
#SCROLL 3
|
|
68,
|
|
|
|
#GOGOSTART
|
|
#SCROLL 1
|
|
4000111020111010,
|
|
11221210,
|
|
1011201120201010,
|
|
2000100020020020,
|
|
1011101010111022,
|
|
2022200020002220,
|
|
1000222010010020,
|
|
30403021,
|
|
2000111020202010,
|
|
2000111020020010,
|
|
11230303,
|
|
0000300011102000,
|
|
2011102010102011,
|
|
1020101020111000,
|
|
1011200020222000,
|
|
1022202020201000,
|
|
12121212,
|
|
12121212,
|
|
12121212,
|
|
12121210,
|
|
12121212,
|
|
12121212,
|
|
12121212,
|
|
12121211,
|
|
12121212,
|
|
12121212,
|
|
12121212,
|
|
12121210,
|
|
12212212,
|
|
12212210,
|
|
30030030,
|
|
30002211,
|
|
|
|
#GOGOEND
|
|
5,
|
|
#SCROLL 0.95
|
|
,
|
|
#SCROLL 0.9
|
|
8,
|
|
#SCROLL 0.85
|
|
,
|
|
#SCROLL 0.8
|
|
2,
|
|
#SCROLL 0.75
|
|
,
|
|
#SCROLL 0.7
|
|
2,
|
|
#SCROLL 0.65
|
|
2,
|
|
#SCROLL 0.6
|
|
2,
|
|
,
|
|
#SCROLL 0.5
|
|
2,
|
|
,
|
|
#SCROLL 0.4
|
|
2,
|
|
,
|
|
#SCROLL 0.3
|
|
2,
|
|
#SCROLL 0.25
|
|
2000
|
|
#SCROLL 1
|
|
2222,
|
|
|
|
|
|
#END
|
|
|
|
|
|
COURSE:Normal
|
|
LEVEL:5
|
|
BALLOON:4
|
|
SCOREINIT:
|
|
SCOREDIFF:
|
|
NOTESDESIGNER1:Colin
|
|
|
|
|
|
#START
|
|
|
|
|
|
#BARLINEOFF
|
|
,
|
|
,
|
|
#BARLINEON
|
|
2,
|
|
,
|
|
2,
|
|
,
|
|
2,
|
|
,
|
|
2,
|
|
2,
|
|
11,
|
|
1110,
|
|
11,
|
|
1110,
|
|
11,
|
|
1110,
|
|
11,
|
|
1110,
|
|
22,
|
|
20222000,
|
|
11,
|
|
10111010,
|
|
30030030,
|
|
03003003,
|
|
30030030,
|
|
2222,
|
|
#GOGOSTART
|
|
20002022,
|
|
2220,
|
|
20002022,
|
|
2220,
|
|
10001011,
|
|
1110,
|
|
10111011,
|
|
1111,
|
|
20002022,
|
|
2220,
|
|
30030303,
|
|
0270,
|
|
80111000,
|
|
10111000,
|
|
10111000,
|
|
1111,
|
|
#GOGOEND
|
|
2,
|
|
,
|
|
2,
|
|
,
|
|
2,
|
|
,
|
|
2,
|
|
,
|
|
1110,
|
|
1110,
|
|
1110,
|
|
1110,
|
|
1011,
|
|
1011,
|
|
1011,
|
|
1,
|
|
#GOGOSTART
|
|
10011010,
|
|
11,
|
|
10011010,
|
|
11,
|
|
20022020,
|
|
22,
|
|
20022020,
|
|
22,
|
|
10001011,
|
|
1110,
|
|
10001011,
|
|
1110,
|
|
20222020,
|
|
20202222,
|
|
1011,
|
|
11,
|
|
10112010,
|
|
12,
|
|
10111010,
|
|
11,
|
|
10222010,
|
|
20001022,
|
|
22,
|
|
22202022,
|
|
1110,
|
|
10111010,
|
|
10030303,
|
|
00202022,
|
|
1111,
|
|
10001111,
|
|
1111,
|
|
10111010,
|
|
#GOGOEND
|
|
1,
|
|
#GOGOSTART
|
|
4240,
|
|
4220,
|
|
10111010,
|
|
3031,
|
|
4022,
|
|
4022,
|
|
40004022,
|
|
3333,
|
|
30111010,
|
|
1110,
|
|
10030304,
|
|
00202022,
|
|
1110,
|
|
1110,
|
|
10111010,
|
|
1111,
|
|
10001011,
|
|
1110,
|
|
10112011,
|
|
1210,
|
|
10111010,
|
|
10111000,
|
|
10222020,
|
|
10201022,
|
|
10111000,
|
|
1210,
|
|
10112000,
|
|
10201220,
|
|
10001011,
|
|
10002022,
|
|
22,
|
|
2222,
|
|
#GOGOEND
|
|
4,
|
|
#SCROLL 0.95
|
|
,
|
|
#SCROLL 0.9
|
|
2,
|
|
#SCROLL 0.85
|
|
,
|
|
#SCROLL 0.8
|
|
2,
|
|
#SCROLL 0.75
|
|
,
|
|
#SCROLL 0.7
|
|
2,
|
|
#SCROLL 0.65
|
|
2,
|
|
#SCROLL 0.6
|
|
2,
|
|
,
|
|
#SCROLL 0.5
|
|
2,
|
|
,
|
|
#SCROLL 0.4
|
|
2,
|
|
,
|
|
#SCROLL 0.3
|
|
2,
|
|
#SCROLL 0.25
|
|
2,
|
|
|
|
|
|
#END
|
|
|
|
|
|
COURSE:Easy
|
|
LEVEL:3
|
|
BALLOON:2
|
|
SCOREINIT:
|
|
SCOREDIFF:
|
|
NOTESDESIGNER0:Colin
|
|
|
|
|
|
#START
|
|
|
|
|
|
#BARLINEOFF
|
|
,
|
|
,
|
|
#BARLINEON
|
|
2,
|
|
,
|
|
2,
|
|
,
|
|
2,
|
|
,
|
|
2,
|
|
2,
|
|
1010,
|
|
1,
|
|
1010,
|
|
1,
|
|
1010,
|
|
1,
|
|
1010,
|
|
1,
|
|
2020,
|
|
2220,
|
|
1010,
|
|
1110,
|
|
30030030,
|
|
03003003,
|
|
30030030,
|
|
,
|
|
#GOGOSTART
|
|
2020,
|
|
2220,
|
|
2020,
|
|
2220,
|
|
1010,
|
|
1,
|
|
1111,
|
|
1010,
|
|
2020,
|
|
2220,
|
|
30030303,
|
|
0270,
|
|
8010,
|
|
1010,
|
|
1110,
|
|
1111,
|
|
#GOGOEND
|
|
2,
|
|
,
|
|
2,
|
|
,
|
|
2,
|
|
,
|
|
2,
|
|
,
|
|
1010,
|
|
1010,
|
|
1,
|
|
1010,
|
|
1010,
|
|
1,
|
|
1010,
|
|
1,
|
|
#GOGOSTART
|
|
10010010,
|
|
,
|
|
10010010,
|
|
,
|
|
20020020,
|
|
,
|
|
20020020,
|
|
,
|
|
1010,
|
|
1110,
|
|
1010,
|
|
1110,
|
|
2020,
|
|
2222,
|
|
1010,
|
|
1,
|
|
1020,
|
|
1,
|
|
1011,
|
|
1010,
|
|
1021,
|
|
2010,
|
|
2020,
|
|
2222,
|
|
1010,
|
|
1110,
|
|
10030303,
|
|
0222,
|
|
1010,
|
|
1,
|
|
1111,
|
|
1010,
|
|
#GOGOEND
|
|
1,
|
|
#GOGOSTART
|
|
4040,
|
|
4,
|
|
1110,
|
|
3030,
|
|
4,
|
|
4,
|
|
4040,
|
|
3333,
|
|
3010,
|
|
1110,
|
|
10030304,
|
|
0222,
|
|
1010,
|
|
1,
|
|
1010,
|
|
1111,
|
|
1010,
|
|
1,
|
|
1020,
|
|
1210,
|
|
1010,
|
|
1,
|
|
1020,
|
|
1212,
|
|
1010,
|
|
1210,
|
|
1020,
|
|
1212,
|
|
1010,
|
|
1022,
|
|
2020,
|
|
2222,
|
|
#GOGOEND
|
|
4,
|
|
#SCROLL 0.95
|
|
0,
|
|
#SCROLL 0.9
|
|
2,
|
|
#SCROLL 0.85
|
|
0,
|
|
#SCROLL 0.8
|
|
2,
|
|
#SCROLL 0.75
|
|
0,
|
|
#SCROLL 0.7
|
|
2,
|
|
#SCROLL 0.65
|
|
2,
|
|
#SCROLL 0.6
|
|
2,
|
|
,
|
|
#SCROLL 0.5
|
|
2,
|
|
,
|
|
#SCROLL 0.4
|
|
2,
|
|
,
|
|
#SCROLL 0.3
|
|
2,
|
|
#SCROLL 0.25
|
|
2,
|
|
|
|
|
|
#END
|
|
|