generated from DragonRatTiger/Custom-Charts
687 lines
9.2 KiB
Plaintext
687 lines
9.2 KiB
Plaintext
TITLE:Λkasha
|
|
SUBTITLE:--BlackY ft. Risa Yuzuki / SOUND VOLTEX EXCEED GEAR
|
|
TITLEJA:Λkasha
|
|
SUBTITLEJA:BlackY ft. 柚木梨沙 「SOUND VOLTEX EXCEED GEAR」より
|
|
PREIMAGE:Akasha.png
|
|
WAVE:Akasha.ogg
|
|
BPM:180
|
|
OFFSET:-1.372
|
|
DEMOSTART:92.7053
|
|
MAKER:Colin & bol
|
|
|
|
COURSE:Easy
|
|
LEVEL:3
|
|
BALLOON:8
|
|
SCOREINIT:
|
|
SCOREDIFF:
|
|
NOTESDESIGNER0:Colin
|
|
|
|
#START
|
|
2,
|
|
,
|
|
2,
|
|
1010,
|
|
1,
|
|
1010,
|
|
1,
|
|
1010,
|
|
1,
|
|
1010,
|
|
1111,
|
|
30030030,
|
|
03006000,
|
|
,
|
|
8,
|
|
#GOGOSTART
|
|
1010,
|
|
1110,
|
|
2020,
|
|
2220,
|
|
1010,
|
|
1110,
|
|
2020,
|
|
#MEASURE 5/4
|
|
2020
|
|
#GOGOEND
|
|
0,
|
|
#MEASURE 3/4
|
|
#GOGOSTART
|
|
111,
|
|
#MEASURE 4/4
|
|
1010,
|
|
1110,
|
|
1010,
|
|
1110,
|
|
2020,
|
|
#GOGOEND
|
|
2,
|
|
2,
|
|
2,
|
|
2,
|
|
2,
|
|
2,
|
|
2020,
|
|
2,
|
|
#MEASURE 3/4
|
|
100,
|
|
111,
|
|
100,
|
|
100,
|
|
111,
|
|
100,
|
|
101,
|
|
101,
|
|
101,
|
|
100,
|
|
#MEASURE 4/4
|
|
7,
|
|
,
|
|
8,
|
|
,
|
|
#GOGOSTART
|
|
1010,
|
|
1110,
|
|
2020,
|
|
2220,
|
|
2020,
|
|
2220,
|
|
1010,
|
|
1110,
|
|
2020,
|
|
2220,
|
|
1010,
|
|
1110,
|
|
2020,
|
|
2220,
|
|
1010,
|
|
#GOGOEND
|
|
1,
|
|
1,
|
|
1,
|
|
1,
|
|
,
|
|
#GOGOSTART
|
|
2020,
|
|
2,
|
|
2022,
|
|
2020,
|
|
1010,
|
|
1110,
|
|
1010,
|
|
#GOGOEND
|
|
1110,
|
|
0
|
|
#GOGOSTART
|
|
220,
|
|
2220,
|
|
1020,
|
|
1110,
|
|
2020,
|
|
2220,
|
|
#GOGOEND
|
|
1,
|
|
1,
|
|
5,
|
|
0008,
|
|
5,
|
|
#GOGOSTART
|
|
0,
|
|
0000000000000008,
|
|
#GOGOEND
|
|
0,
|
|
#END
|
|
|
|
COURSE:Normal
|
|
LEVEL:4
|
|
BALLOON:16
|
|
SCOREINIT:
|
|
SCOREDIFF:
|
|
NOTESDESIGNER1:Colin
|
|
|
|
#START
|
|
2,
|
|
2020,
|
|
2,
|
|
1010,
|
|
1110,
|
|
10001011,
|
|
1110,
|
|
1010,
|
|
1110,
|
|
10111010,
|
|
10101111,
|
|
30030030,
|
|
03006000,
|
|
,
|
|
8,
|
|
#GOGOSTART
|
|
1110,
|
|
10101011,
|
|
2220,
|
|
20202022,
|
|
1110,
|
|
10111000,
|
|
2220,
|
|
#MEASURE 5/4
|
|
2220
|
|
#GOGOEND
|
|
0,
|
|
#MEASURE 3/4
|
|
#GOGOSTART
|
|
111,
|
|
#MEASURE 4/4
|
|
10001011,
|
|
1110,
|
|
1110,
|
|
1110,
|
|
20222020,
|
|
#GOGOEND
|
|
2020,
|
|
2,
|
|
2020,
|
|
2022,
|
|
2020,
|
|
2,
|
|
2220,
|
|
2020,
|
|
#MEASURE 3/4
|
|
100011,
|
|
111,
|
|
100011,
|
|
110,
|
|
111,
|
|
111,
|
|
101,
|
|
101,
|
|
101,
|
|
100,
|
|
#MEASURE 4/4
|
|
7,
|
|
,
|
|
8,
|
|
,
|
|
#GOGOSTART
|
|
1110,
|
|
10111010,
|
|
20202022,
|
|
2220,
|
|
2220,
|
|
20202022,
|
|
10001011,
|
|
1110,
|
|
2220,
|
|
2220,
|
|
10111010,
|
|
1110,
|
|
20222000,
|
|
20222000,
|
|
10111000,
|
|
#GOGOEND
|
|
1010,
|
|
1010,
|
|
1010,
|
|
1010,
|
|
,
|
|
#GOGOSTART
|
|
2220,
|
|
20222000,
|
|
20202022,
|
|
2220,
|
|
1110,
|
|
10111000,
|
|
1110,
|
|
#GOGOEND
|
|
1110,
|
|
0
|
|
#GOGOSTART
|
|
220,
|
|
20222000,
|
|
1120,
|
|
1110,
|
|
20222000,
|
|
2220,
|
|
#GOGOEND
|
|
1,
|
|
1011,
|
|
5,
|
|
0008,
|
|
5,
|
|
#GOGOSTART
|
|
0,
|
|
0000000000000008,
|
|
#GOGOEND
|
|
0,
|
|
#END
|
|
|
|
COURSE:Hard
|
|
LEVEL:6
|
|
BALLOON:4,4,8,32,32,8,16,8,55
|
|
SCOREINIT:
|
|
SCOREDIFF:
|
|
NOTESDESIGNER2:Colin
|
|
|
|
#START
|
|
202222,
|
|
202020200022,
|
|
222222,
|
|
11112120,
|
|
22212070,
|
|
81212120,
|
|
5008,
|
|
11112120,
|
|
22212070,
|
|
81212120,
|
|
5008,
|
|
30030030,
|
|
03006000,
|
|
,
|
|
8,
|
|
#GOGOSTART
|
|
2000200020020010,
|
|
2001001070000000,
|
|
8000200020020020,
|
|
2001001002002010,
|
|
1000200020020020,
|
|
7,
|
|
,
|
|
#MEASURE 5/4
|
|
8004004000000000
|
|
#GOGOEND
|
|
0000,
|
|
#MEASURE 3/4
|
|
#GOGOSTART
|
|
200020020020,
|
|
#MEASURE 4/4
|
|
2001002001001010,
|
|
1000202020020010,
|
|
2001001002002000,
|
|
1000111110002222,
|
|
2002002020020020,
|
|
#GOGOEND
|
|
1222,
|
|
2222,
|
|
5,
|
|
0008,
|
|
1222,
|
|
2222,
|
|
5,
|
|
0080,
|
|
#MEASURE 3/4
|
|
100100,
|
|
100100,
|
|
100100,
|
|
111,
|
|
100100,
|
|
111,
|
|
101110100000,
|
|
101110100000,
|
|
101110200000,
|
|
,
|
|
#MEASURE 4/4
|
|
7,
|
|
,
|
|
8,
|
|
,
|
|
#GOGOSTART
|
|
2002200220022010,
|
|
2001001020002020,
|
|
2001002010010010,
|
|
2001002220001000,
|
|
2022222220111010,
|
|
2270,
|
|
8000102020222020,
|
|
50000008,
|
|
1001001020020020,
|
|
2001002020101000,
|
|
2001002020002020,
|
|
2022201110201000,
|
|
2011102020010010,
|
|
1001002020002000,
|
|
7,
|
|
#GOGOEND
|
|
8211,
|
|
2111,
|
|
2111,
|
|
2111,
|
|
,
|
|
#GOGOSTART
|
|
2000200020010020,
|
|
2001001022222000,
|
|
1002200020020020,
|
|
2002002002002020,
|
|
2222200010010010,
|
|
2000111110111000,
|
|
7000000080040040,
|
|
#GOGOEND
|
|
400000000400000040000000400000004000000040000000,
|
|
0000
|
|
#GOGOSTART
|
|
101020020020,
|
|
2001001020222000,
|
|
1000201020020020,
|
|
2001002002001111,
|
|
1000200010111000,
|
|
2002002020020020,
|
|
#GOGOEND
|
|
7,
|
|
,
|
|
,
|
|
,
|
|
,
|
|
#GOGOSTART
|
|
0,
|
|
00000008,
|
|
#GOGOEND
|
|
0,
|
|
#END
|
|
|
|
COURSE:Oni
|
|
LEVEL:10
|
|
BALLOON:12,48,12
|
|
SCOREINIT:
|
|
SCOREDIFF:
|
|
NOTESDESIGNER3:Colin
|
|
|
|
#START
|
|
102121,
|
|
101020100012,
|
|
122222,
|
|
2010201020102211,
|
|
2010201020101111,
|
|
2010221120102010,
|
|
100222100200101010101010,
|
|
11212212,
|
|
1010201020201111,
|
|
22121212,
|
|
100010001000200020002000100010001000200200200200,
|
|
12232232,
|
|
23226000,
|
|
,
|
|
8,
|
|
#GOGOSTART
|
|
2011201220120120,
|
|
200000200100000200100000100100200200100200101010,
|
|
1010201220120120,
|
|
200000200100000100200000100200000100200000101010,
|
|
1012201120120120,
|
|
2122121120212221,
|
|
200200200200100100100100200020002000200020002000,
|
|
#MEASURE 5/4
|
|
4003003070000000
|
|
#GOGOEND
|
|
8000,
|
|
#MEASURE 3/4
|
|
#GOGOSTART
|
|
200100100100200000100200000100202020,
|
|
#MEASURE 4/4
|
|
2012012012012022,
|
|
1011201220120121,
|
|
2012012012012111,
|
|
2021211121112111,
|
|
2012021010210110,
|
|
#GOGOEND
|
|
3222,
|
|
2222,
|
|
5,
|
|
0008,
|
|
2222,
|
|
2222,
|
|
5,
|
|
0080,
|
|
#MEASURE 3/4
|
|
100120,
|
|
101120,
|
|
100120,
|
|
112,
|
|
101111,
|
|
111111,
|
|
111120111110,
|
|
111120111112,
|
|
111111221111,
|
|
,
|
|
#MEASURE 4/4
|
|
7,
|
|
,
|
|
8000101220122012,
|
|
200000101010200000100100200200100100200200100100,
|
|
#GOGOSTART
|
|
2011221120120121,
|
|
2012021112121111,
|
|
2011201210120120,
|
|
200000200100200000202020100010001000200020002000,
|
|
100000100100200200100100200000101010200000100000,
|
|
2211211222112010,
|
|
2211221120112121,
|
|
2012012022221111,
|
|
2012012120120120,
|
|
2212111121212121,
|
|
2012012220120120,
|
|
2022111212221111,
|
|
200000202020100200000200100100100100200200100100,
|
|
200000202020100100000100200000100100200020001000,
|
|
2011201122222222,
|
|
#GOGOEND
|
|
1444,
|
|
40040040,
|
|
3444,
|
|
4000004000040000,
|
|
,
|
|
#GOGOSTART
|
|
2011201120120120,
|
|
200000100200000100200000100200200200200100101010,
|
|
2011201120120120,
|
|
200000101010100000200000100200000100200000101010,
|
|
1111201120120120,
|
|
2022111122112121,
|
|
7000000080020120,
|
|
#GOGOEND
|
|
444444,
|
|
0000
|
|
#GOGOSTART
|
|
211121121121,
|
|
2012012022221111,
|
|
2010211121121121,
|
|
2012012012012011,
|
|
200010001000200200100100200200100100200200100100,
|
|
244444,
|
|
#GOGOEND
|
|
5,
|
|
0008,
|
|
5,
|
|
0008,
|
|
5,
|
|
#GOGOSTART
|
|
0,
|
|
0000000000000008,
|
|
#GOGOEND
|
|
0,
|
|
#END
|
|
|
|
COURSE:Edit
|
|
LEVEL:11
|
|
BALLOON:2,2,1,6,10,35
|
|
SCOREINIT:600
|
|
SCOREDIFF:
|
|
NOTESDESIGNER4:bol
|
|
|
|
#START
|
|
#MEASURE 12/4
|
|
#SCROLL 0.5
|
|
200200000000000000000000000000000000000000000000200000000000000000000000200000000000000000000000200000000000000000000000200000000000000000000000200000000000000000000000200000000000000000000000200000000000000000000000200000000000000000000000000000000000000000000000200000000000200000000000200000000000000000000000200000000000000000000000200000000000000000000000200000001000000010000000200000001000000010000000200000000000000000000000,
|
|
#MEASURE 4/4
|
|
#SCROLL 1
|
|
31212112,
|
|
2020201020201122,
|
|
212121212121212121212121,
|
|
100000000000200200200200100000000000100000000000200020002000100010001000100000002000000020000000,
|
|
300000100100200100200000101010100100200100200000,
|
|
101010200100200100200000101020200200100200100000,
|
|
202020200200100100100100202020200100200100100100,
|
|
#SCROLL 1.5
|
|
303040304040111222500800,
|
|
322301
|
|
#SCROLL 1.75
|
|
41,
|
|
100400000200
|
|
#SCROLL 2
|
|
121212121212,
|
|
121212121212121212121212,
|
|
300000000000
|
|
#SCROLL 1
|
|
222222700800,
|
|
#GOGOSTART
|
|
300000100200100000100200100200200100201010100000,
|
|
1012102212212111,
|
|
1121201212212222,
|
|
100202020100000100200000200100000100200000100000,
|
|
101020100000300000100200100200200100201010100000,
|
|
3012112120212212,
|
|
202020101010202020101010200
|
|
#SCROLL 0.5
|
|
10000
|
|
#SCROLL 1
|
|
3
|
|
#SCROLL 0.5
|
|
2000001
|
|
#SCROLL 1
|
|
10
|
|
#SCROLL 0.5
|
|
20
|
|
#SCROLL 1
|
|
1
|
|
#SCROLL 0.5
|
|
100,
|
|
#SCROLL 1
|
|
300000000300000000300000102010201020102010201020,
|
|
#MEASURE 7/4
|
|
#GOGOEND
|
|
1000
|
|
#GOGOSTART
|
|
#BPMCHANGE 360
|
|
#SCROLL 0.833333
|
|
221122112010101010211110,
|
|
#MEASURE 8/4
|
|
30202030222030202030222030203020,
|
|
10201111101020001020111022221000,
|
|
30202030222030202030222030203020,
|
|
100020001000202020101010200100100100202020201010,
|
|
20001021111120002000102221211000,
|
|
#MEASURE 4/4
|
|
#GOGOEND
|
|
#BPMCHANGE 180
|
|
#SCROLL 1.66667
|
|
3
|
|
#SCROLL 0.5
|
|
221,
|
|
#BARLINEOFF
|
|
1221,
|
|
1020,
|
|
221111222111211112111222,
|
|
1221,
|
|
1221,
|
|
2020,
|
|
222221222211222111211111,
|
|
#MEASURE 3/4
|
|
#BARLINEON
|
|
#SCROLL 0.75
|
|
300122,
|
|
#BARLINEOFF
|
|
112,
|
|
100122,
|
|
112,
|
|
101111,
|
|
111111,
|
|
#BARLINEON
|
|
#SCROLL 1
|
|
111210111210,
|
|
#BARLINEOFF
|
|
200200200100202020200200200100200000,
|
|
102010201010222220102010,
|
|
,
|
|
#MEASURE 4/4
|
|
#GOGOSTART
|
|
#BARLINEON
|
|
#SCROLL 3
|
|
111111111111211121112111,
|
|
211121112111212121222222,
|
|
#GOGOEND
|
|
1000
|
|
#SCROLL 1
|
|
201120112011,
|
|
2011201121122211,
|
|
#GOGOSTART
|
|
1022102210221121,
|
|
200000100200000100200100202010202010201020102010,
|
|
100000100200101010100200200000100200100100201020,
|
|
100000002020100000201000100010001000200100100200,
|
|
700000800000200100100200100000102020100000200200,
|
|
700800100200200100101020100200201010200000200000,
|
|
202020201010202020100100200100100100101010202020,
|
|
100000200100000200100000101020101020101020101020,
|
|
#GOGOEND
|
|
70000080
|
|
#SCROLL 2
|
|
32232231,
|
|
400100100400100100400100102010201020102010201020,
|
|
00
|
|
#SCROLL 1
|
|
11
|
|
#GOGOSTART
|
|
#SCROLL 2
|
|
40
|
|
#SCROLL 1
|
|
1210221220,
|
|
200200100200200100200100201010201010201010202020,
|
|
100011112101210121012101,
|
|
200010102010100020101010200000100100200100200000,
|
|
221122112111222211221222,
|
|
#GOGOEND
|
|
100122102120,
|
|
401222101210,
|
|
300211202120,
|
|
411212202210,
|
|
0
|
|
#SCROLL 8
|
|
7000080,
|
|
#GOGOSTART
|
|
#SCROLL 1.33
|
|
200000580000100000100000200000580000100000100000200000100000580000200000100000100000200000580000,
|
|
200000200000100000200000580000100000100000580000200000100000580000200000100000200000200000580000,
|
|
200000580000100000100000200000580000100000100000200000100000580000200000100000100000200000580000,
|
|
200000200000100000200000200000580000100000580000200000580000200000200000100000200000200000580000,
|
|
200020001000100000580000400000580000100000200000100000200000200000100000580000200000100000200000,
|
|
200000580000100010001000200000100000200000100000200000200000100000200000200000100000200000200000,
|
|
100010002000100010002000200010001000200010001000200000580000100000200000580000200000100000580000,
|
|
300068006800680040006800680068004000680068006800400068006800680030006800680068004000680068000000,
|
|
#MEASURE 7/4
|
|
#GOGOEND
|
|
122222
|
|
#GOGOSTART
|
|
#BPMCHANGE 360
|
|
#SCROLL 1
|
|
400000200200100000200200100100200000,
|
|
#MEASURE 8/4
|
|
30202030222030202030222030203020,
|
|
12222220400020201020111122221000,
|
|
30202030222030202030222030202020,
|
|
100101010100202020100200202010100200201020102010,
|
|
122212221111211121112222,
|
|
#MEASURE 4/4
|
|
#GOGOEND
|
|
#BPMCHANGE 180
|
|
#SCROLL 2
|
|
30
|
|
#SCROLL 1
|
|
20,
|
|
2020,
|
|
7,
|
|
0008,
|
|
300000000000111111111111,
|
|
#GOGOSTART
|
|
#SCROLL 3
|
|
111111111111211121112111,
|
|
211121112111212121222222,
|
|
#GOGOEND
|
|
3,
|
|
#END
|