Files
2025-06-11 19:53:16 -04:00

635 lines
7.0 KiB
Plaintext

TITLE:BEDLAM
SUBTITLEJA:SANY-ON 「EZ2AC EVOLVE」より
SUBTITLE:--SANY-ON / EZ2AC EVOLVE
BPM:183
WAVE:BEDLAM.ogg
PREIMAGE:BEDLAM.jpg
OFFSET:-1.114
DEMOSTART:22.097
MAKER:Colin & Ryuto Setsujin
COURSE:Edit
LEVEL:10
BALLOON:5,3
SCOREINIT:
SCOREDIFF:
NOTESDESIGNER4:Colin
#START
1011221020121010,
1121221122112120,
1211221122112120,
1001101020112022,
100000100100200000100000000000000000200020002000,
100000000100200000100000000000000000100020001000,
100000100100200000100000000000000000100020001000,
200010001000200200200200100200100200100200100000,
#GOGOSTART
1011211122112222,
1011212211221222,
1211221211201122,
101122
#GOGOEND
1210221022,
#GOGOSTART
1011221122221222,
1011221211221022,
1011221212111212,
#GOGOEND
1111102021221222,
1022121020121012,
1210221010102000,
1011221210212022,
1022102211221011,
2010221122121022,
1211221022222020,
11708178,
1012121211201210,
#GOGOSTART
2011212012102210,
1212121021201120,
2212121012102010,
#GOGOEND
1011202212121022,
#GOGOSTART
1012112011201122,
1121221211201120,
1212121012121022,
#GOGOEND
1010201021121020,
#GOGOSTART
1011201011201010,
1022102012112010,
1120102012102010,
100000100100200000200100200100200000202020202020,
1210201022102010,
1122102011221012,
1011221010101010,
#GOGOEND
2,
12112122,
1020202211102010,
100000200200100000200000200010000100200000100000,
1020112210102010,
1020112010101020,
1210202211221120,
1022101020102020,
1210222210121120,
1022102011221120,
1022102010221122,
1022102210221120,
1210222210221120,
1022102210221022,
1022101211221012,
1222122212221210,
#GOGOSTART
100020101210
#GOGOEND
6080,
#GOGOSTART
1021201211221212,
1121202212121212,
1021201211221120,
#GOGOEND
1020202222105080,
#GOGOSTART
112212102102,
102211222111,
101020100010201020111200,
#GOGOEND
1020202212121010,
#GOGOSTART
1021121211221020,
1021121022121011,
2021121021221010,
#GOGOEND
2122102120112212,
#GOGOSTART
1021121121121122,
1021121022121011,
2212121121201022,
#GOGOEND
1012101010201120,
100000100200100100200000200200100000200020001010,
2011221122112212,
1012121122112212,
100000200000100000200000100200100000202020202020,
#GOGOSTART
100200100100200100100100200100100100
#GOGOEND
200000202020,
#GOGOSTART
111121112111
#GOGOEND
2222,
#GOGOSTART
111121112111
#GOGOEND
2212,
1010202212102012,
1,
#END
COURSE:Oni
LEVEL:10
BALLOON:
SCOREINIT:
SCOREDIFF:
NOTESDESIGNER3:Ryuto Setsujin
#START
1000100010021020,
1000100010210210,
1000100010021020,
1002102011221122,
1001101000002220,
1001101000002202,
1001101000002220,
2022222222202202,
#GOGOSTART
1111122212221222,
1111122212221222,
1111122212221222,
111110
#GOGOEND
2030223022,
#GOGOSTART
1111122212221222,
1111122212221222,
1111122212221222,
#GOGOEND
1012102010221022,
1020101110210210,
1110101140404000,
1210102210210210,
2011201122112210,
2010202210120210,
1222102233333000,
10201021,
1010202012021222,
#GOGOSTART
1021021012121222,
1021021012221222,
1021021012221222,
#GOGOEND
1010202211211022,
#GOGOSTART
1021021012121222,
1021021012221222,
1022122212211212,
#GOGOEND
1010202011021112,
#GOGOSTART
1022102010221020,
1022102010210120,
1022102012221222,
1010202012021111,
1022102010221020,
1022102011112020,
1010222020201222,
#GOGOEND
1010202011021020,
12102022,
0020002220002020,
12102022,
0020002220202020,
12102022,
0020002220002000,
12102022,
0020002220222020,
1022102010221020,
1022102010221020,
1022102010221020,
1022102012221022,
1111,
1111,
1010101011111111,
#GOGOSTART
100010202020
#GOGOEND
3222,
#GOGOSTART
1022102210201222,
1022102010201222,
1022102010201222,
#GOGOEND
1020101212222000,
#GOGOSTART
102102111222,
102102111222,
100000002000100000002000100000002000100200200200,
#GOGOEND
1020202012221000,
#GOGOSTART
1121121112112211,
1221221221112222,
1221221211112212,
#GOGOEND
1010202011012022,
#GOGOSTART
1021021012121222,
1021021012221212,
1021021012221212,
#GOGOEND
1010202012221212,
1001001001002222,
1001001001002222,
1001001001002222,
1010202211012022,
#GOGOSTART
100100100100
#GOGOEND
2220,
#GOGOSTART
100100100100
#GOGOEND
2222,
#GOGOSTART
100100100100
#GOGOEND
2222,
1010202211012022,
1,
#END
COURSE:Hard
LEVEL:7
BALLOON:2
SCOREINIT:
SCOREDIFF:
NOTESDESIGNER2:Ryuto Setsujin
#START
1000100010010010,
1000100010010010,
1000100010010010,
1001001010101010,
10010020,
10010020,
10010020,
1000100010101100,
#GOGOSTART
10211120,
10211120,
10211120,
111
#GOGOEND
11010,
#GOGOSTART
10211120,
10211120,
10211120,
#GOGOEND
11111010,
1010100010010010,
11102220,
1010100010010010,
1011101010111000,
1020100010010010,
11105008,
1212,
1111,
#GOGOSTART
1011011010101000,
1011011010101000,
1011011010101000,
#GOGOEND
12211220,
#GOGOSTART
1011011011101000,
1011011011101000,
1011011011101000,
#GOGOEND
10221020,
#GOGOSTART
1011101000201000,
1011101020020020,
1011102050008020,
1001001001001010,
1011101000201000,
1011102011111000,
11121112,
#GOGOEND
1000100010010000,
10001011,
0010001110001010,
10001011,
0010001110001010,
10001011,
0010001110001010,
10001011,
0010001110001111,
10101012,
10101012,
10101012,
10101012,
1111,
1111,
11111111,
#GOGOSTART
100010101010
#GOGOEND
7008,
#GOGOSTART
1010101011111010,
1010101022222020,
1010101011111010,
#GOGOEND
12220020,
#GOGOSTART
101101101101,
101101111101,
100010100010100010100100,
#GOGOEND
1010101011010000,
#GOGOSTART
3003003003003000,
3003003003003000,
3003003003003000,
#GOGOEND
1010202011010000,
#GOGOSTART
3003003003003000,
3003003003003000,
3003003003003000,
#GOGOEND
1001001000101010,
3004003004003000,
3004003004003000,
3004003004003010,
1010202011010000,
#GOGOSTART
111110111110
#GOGOEND
1020,
#GOGOSTART
111110111110
#GOGOEND
2222,
#GOGOSTART
111110111110
#GOGOEND
1210,
1010101011010000,
2,
#END
COURSE:Normal
LEVEL:5
BALLOON:
SCOREINIT:
SCOREDIFF:
NOTESDESIGNER1:Colin
#START
1110,
1110,
1111,
1010,
2220,
1110,
2220,
1111,
#GOGOSTART
2020,
2220,
2220,
202
#GOGOEND
02000,
#GOGOSTART
1110,
1110,
1110,
#GOGOEND
2222,
2020,
2022,
2020,
2022,
1010,
1110,
1110,
1111,
#GOGOSTART
1010,
1110,
1010,
#GOGOEND
1111,
#GOGOSTART
1020,
2220,
1020,
#GOGOEND
2222,
#GOGOSTART
1110,
1110,
2220,
1212,
1110,
1110,
2220,
#GOGOEND
1111,
2220,
2220,
2220,
2222,
1110,
1120,
1122,
1120,
2220,
2220,
2220,
2220,
1120,
1120,
5,
#GOGOSTART
800
#GOGOEND
0,
#GOGOSTART
1210,
1210,
1210,
#GOGOEND
1222,
#GOGOSTART
1010,
1010,
2220,
#GOGOEND
2220,
#GOGOSTART
1110,
1120,
2210,
#GOGOEND
1110,
#GOGOSTART
1210,
1210,
1210,
#GOGOEND
2020,
1110,
1110,
1110,
1110,
#GOGOSTART
222
#GOGOEND
0,
#GOGOSTART
222
#GOGOEND
0,
#GOGOSTART
222
#GOGOEND
0,
1,
1,
#END
COURSE:Easy
LEVEL:3
BALLOON:
SCOREINIT:
SCOREDIFF:
NOTESDESIGNER0:Colin
#START
1,
1,
1,
1,
2020,
2,
1010,
1,
#GOGOSTART
2010,
2010,
2010,
200
#GOGOEND
01000,
#GOGOSTART
2020,
2010,
2020,
#GOGOEND
2,
1110,
1,
1110,
1,
1110,
1,
2220,
2020,
#GOGOSTART
1,
1110,
1020,
#GOGOEND
1110,
#GOGOSTART
1020,
1,
1020,
#GOGOEND
5,
#GOGOSTART
8,
1,
2,
1010,
1,
2,
1,
#GOGOEND
1,
2,
2,
2,
2,
2,
2,
2,
2,
1100,
1100,
1100,
1100,
5,
,
,
#GOGOSTART
800
#GOGOEND
0,
#GOGOSTART
1100,
1100,
1100,
#GOGOEND
1120,
#GOGOSTART
2200,
2200,
2200,
#GOGOEND
1,
#GOGOSTART
1010,
1010,
1010,
#GOGOEND
1110,
#GOGOSTART
2020,
2020,
2220,
#GOGOEND
2020,
1100,
1100,
2200,
2200,
#GOGOSTART
111
#GOGOEND
0,
#GOGOSTART
111
#GOGOEND
0,
#GOGOSTART
111
#GOGOEND
0,
2022,
2,
#END