generated from DragonRatTiger/Custom-Charts
323 lines
3.4 KiB
Plaintext
323 lines
3.4 KiB
Plaintext
TITLE:Bad Tripper
|
|
SUBTITLE:--Maiki-P / CHUNITHM LUMINOUS PLUS
|
|
TITLEJA:バッドトリッパー
|
|
SUBTITLEJA:マイキP 「CHUNITHM LUMINOUS PLUS」より
|
|
PREIMAGE:Bad Tripper.png
|
|
WAVE:Bad Tripper.ogg
|
|
BPM:120
|
|
OFFSET:-0.562
|
|
DEMOSTART:66.062
|
|
MAKER:Colin
|
|
|
|
COURSE:Easy
|
|
LEVEL:3
|
|
SCOREINIT:
|
|
SCOREDIFF:
|
|
NOTESDESIGNER0:Colin
|
|
|
|
#START
|
|
0033,
|
|
#GOGOSTART
|
|
3010,
|
|
1110,
|
|
2020,
|
|
2000200020000
|
|
#GOGOEND
|
|
000,
|
|
#GOGOSTART
|
|
1010,
|
|
1110,
|
|
2020,
|
|
2220,
|
|
#GOGOEND
|
|
1010,
|
|
1,
|
|
2020,
|
|
2,
|
|
1010,
|
|
1,
|
|
2020,
|
|
2,
|
|
1110,
|
|
1010,
|
|
2220,
|
|
2020,
|
|
5080,
|
|
5080,
|
|
2220,
|
|
1110,
|
|
3,
|
|
3,
|
|
3,
|
|
3,
|
|
3110,
|
|
2220,
|
|
1110,
|
|
3,
|
|
#GOGOSTART
|
|
1110,
|
|
1010,
|
|
2220,
|
|
2020,
|
|
1110,
|
|
1010,
|
|
2020,
|
|
2220,
|
|
1010,
|
|
1110,
|
|
2020,
|
|
2220,
|
|
1010,
|
|
1110,
|
|
2020,
|
|
2220,
|
|
#GOGOEND
|
|
30000300,
|
|
03000000,
|
|
3,
|
|
3030,
|
|
#GOGOSTART
|
|
3110,
|
|
1110,
|
|
2220,
|
|
202020
|
|
#GOGOEND
|
|
06,
|
|
,
|
|
00008003,
|
|
#END
|
|
|
|
COURSE:Normal
|
|
LEVEL:3
|
|
SCOREINIT:
|
|
SCOREDIFF:
|
|
NOTESDESIGNER1:Colin
|
|
|
|
#START
|
|
0033,
|
|
#GOGOSTART
|
|
30001011,
|
|
1110,
|
|
20002022,
|
|
2000200020000
|
|
#GOGOEND
|
|
000,
|
|
#GOGOSTART
|
|
10101011,
|
|
1110,
|
|
20202022,
|
|
2220,
|
|
#GOGOEND
|
|
1110,
|
|
1010,
|
|
2220,
|
|
2020,
|
|
1011,
|
|
1,
|
|
2022,
|
|
2022,
|
|
10101011,
|
|
1010,
|
|
20222020,
|
|
2220,
|
|
5080,
|
|
5080,
|
|
20202022,
|
|
1111,
|
|
3,
|
|
3,
|
|
3,
|
|
3110,
|
|
30111000,
|
|
20222000,
|
|
10111010,
|
|
3,
|
|
#GOGOSTART
|
|
10111010,
|
|
1110,
|
|
20222020,
|
|
2220,
|
|
10111010,
|
|
10111000,
|
|
20202022,
|
|
2220,
|
|
10111010,
|
|
1110,
|
|
20222020,
|
|
2220,
|
|
10111010,
|
|
1110,
|
|
20202022,
|
|
2220,
|
|
#GOGOEND
|
|
30000300,
|
|
03000000,
|
|
30000300,
|
|
3030,
|
|
#GOGOSTART
|
|
30101011,
|
|
1110,
|
|
20202022,
|
|
202020
|
|
#GOGOEND
|
|
06,
|
|
,
|
|
00008003,
|
|
#END
|
|
|
|
COURSE:Hard
|
|
LEVEL:4
|
|
SCOREINIT:
|
|
SCOREDIFF:
|
|
NOTESDESIGNER2:Colin
|
|
|
|
#START
|
|
0033,
|
|
#GOGOSTART
|
|
30201120,
|
|
10201122,
|
|
10201120,
|
|
1010200030003
|
|
#GOGOEND
|
|
000,
|
|
#GOGOSTART
|
|
30201120,
|
|
1000200011102020,
|
|
10201120,
|
|
11203030,
|
|
#GOGOEND
|
|
30221010,
|
|
12121000,
|
|
10111020,
|
|
12121000,
|
|
2222,
|
|
21212020,
|
|
1111,
|
|
1211,
|
|
10201212,
|
|
10111000,
|
|
2222,
|
|
21212000,
|
|
10101012,
|
|
12121010,
|
|
1212,
|
|
10201120,
|
|
1001001010102000,
|
|
1001001010102000,
|
|
1001001010102000,
|
|
11221020,
|
|
10201122,
|
|
10201122,
|
|
1212,
|
|
3330,
|
|
#GOGOSTART
|
|
30221020,
|
|
10222012,
|
|
10101014,
|
|
03404022,
|
|
10221012,
|
|
01212022,
|
|
11122223,
|
|
03404022,
|
|
30221022,
|
|
01222012,
|
|
10111012,
|
|
01222022,
|
|
10221012,
|
|
01212022,
|
|
11122224,
|
|
03404000,
|
|
#GOGOEND
|
|
3000222000300020,
|
|
2030202003003030,
|
|
3000000003000000,
|
|
3003003030003000,
|
|
#GOGOSTART
|
|
30201120,
|
|
10201122,
|
|
10201120,
|
|
112032
|
|
#GOGOEND
|
|
36,
|
|
,
|
|
00008003,
|
|
#END
|
|
|
|
COURSE:Oni
|
|
LEVEL:8
|
|
SCOREINIT:
|
|
SCOREDIFF:
|
|
NOTESDESIGNER3:Colin
|
|
|
|
#START
|
|
101010100200100100200200100100000000100100000000,
|
|
#GOGOSTART
|
|
1121021121122011,
|
|
200100100200000200100200101010100100200000100200,
|
|
1211221121022011,
|
|
20201010202220201020000010
|
|
#GOGOEND
|
|
200000,
|
|
#GOGOSTART
|
|
1121021121122011,
|
|
200100100200000200100200101010100100200000100200,
|
|
1211221121022011,
|
|
20201010202220201020000040000000,
|
|
#GOGOEND
|
|
30222212,
|
|
11222000,
|
|
10121122,
|
|
21122020,
|
|
20111221,
|
|
12112011,
|
|
20202122,
|
|
01223140,
|
|
3011220120102020,
|
|
1101201020112020,
|
|
1101201120102010,
|
|
1101201040004000,
|
|
3020120120102020,
|
|
1012012010102020,
|
|
1101201021012020,
|
|
1012102012012020,
|
|
12211120,
|
|
11111121,
|
|
12121111,
|
|
02122220,
|
|
1212011010122012,
|
|
1212012010201020,
|
|
1022102010221020,
|
|
101010100200100100200100200200000000200000200000,
|
|
#GOGOSTART
|
|
3010220210102020,
|
|
1010202211202020,
|
|
1010201210102040,
|
|
03404022,
|
|
3011202121012020,
|
|
1010201120102020,
|
|
1212012020102040,
|
|
03404022,
|
|
3011201110212020,
|
|
1101202212012020,
|
|
1010201210102020,
|
|
1011201040004000,
|
|
3011202121012020,
|
|
1010201120102020,
|
|
1021202020102040,
|
|
0030400040001210,
|
|
#GOGOEND
|
|
3021112121122011,
|
|
2012021121002102,
|
|
1121021121122011,
|
|
2112221212012200,
|
|
#GOGOSTART
|
|
1121021121122011,
|
|
200100100200000200100200101010100100200000100200,
|
|
1211221121022011,
|
|
202010102022202010200010
|
|
#GOGOEND
|
|
00006000,
|
|
,
|
|
00008003,
|
|
#END
|