Files
2025-06-11 19:53:16 -04:00

481 lines
4.6 KiB
Plaintext

TITLE:Beautiful Future
SUBTITLE:--PSYQUI / maimai DX Splash
TITLEJA:Beautiful Future
SUBTITLEJA:PSYQUI 「maimai でらっくす Splash」より
PREIMAGE:Beautiful Future.png
BGMOVIE:Beautiful Future.mp4
WAVE:Beautiful Future.ogg
BPM:172
OFFSET:-2.856
DEMOSTART:102.972
GENRE:ゲームミュージック
MAKER:Colin
COURSE:Easy
LEVEL:3
SCOREINIT:
SCOREDIFF:
#START
3,
,
,
,
,
,
,
,
3010,
1110,
1010,
1110,
1010,
1110,
5,
8,
2,
0
#GOGOSTART
220,
2020,
2220,
1010,
1110,
1010,
1110,
2020,
2220,
2020,
2,
1010,
1110,
1010,
1,
#GOGOEND
2020,
2,
2020,
2,
2020,
2,
2020,
,
#GOGOSTART
3110,
1010,
1110,
1010,
2220,
2020,
2220,
#GOGOEND
2020,
0
#GOGOSTART
101,
1010,
1011,
1010,
2022,
2020,
2022,
#GOGOEND
0,
3,
,
,
,
1010,
1,
1010,
1,
2020,
2,
2020,
2,
2020,
2020,
2222,
,
3,
0
#GOGOSTART
300,
1010,
1110,
2020,
2220,
2020,
2220,
1010,
1110,
1010,
1,
2020,
2220,
2020,
2,
#GOGOEND
3,
,
,
,
2,
2,
2,
2022,
#END
COURSE:Normal
LEVEL:4
SCOREINIT:
SCOREDIFF:
#START
3,
,
,
,
,
,
,
,
3011,
10111000,
1010,
1110,
10001011,
1110,
5,
8,
2,
00
#GOGOSTART
202002,
2220,
20222000,
10011001,
1110,
10001011,
1110,
20022020,
20222000,
2022,
2020,
10011010,
10111000,
10011010,
1,
#GOGOEND
2020,
20222000,
2020,
2,
20002022,
2220,
2020,
,
#GOGOSTART
30101011,
1110,
10101101,
1110,
20202022,
2220,
20202202,
#GOGOEND
2220,
0
#GOGOSTART
101,
10111000,
10001011,
1110,
20002022,
2220,
2022,
#GOGOEND
0,
3,
,
,
,
1011,
1,
1011,
1,
20002022,
2020,
2222,
2020,
20202022,
2220,
20222020,
,
3,
0
#GOGOSTART
301,
10111010,
1110,
20002022,
2220,
20022002,
2220,
10001011,
1110,
1011,
1010,
20022020,
2220,
20022020,
2,
#GOGOEND
3,
,
,
,
2,
2,
2,
2022,
#END
COURSE:Hard
LEVEL:6
SCOREINIT:
SCOREDIFF:
#START
3,
1,
1,
1,
1,
1,
1,
1,
1111,
1111,
1111,
10101011,
11111111,
11111111,
5,
8,
3000000040040040,
0
#GOGOSTART
412,
1010200010020020,
01201120,
1000200010020020,
01201022,
1000200010020020,
01201020,
1000200010020020,
01201022,
1000200010020020,
01201020,
1000200010020020,
01201022,
1000200010020020,
01201020,
#GOGOEND
1202,
1202,
1202,
1202,
11201120,
11201120,
1011100010111010,
3,
#GOGOSTART
3000200200102000,
1000200200102011,
1000200200102000,
1000200200102011,
1000200200102000,
1000200200102011,
1000200200102000,
#GOGOEND
1010010010010010,
0000
#GOGOSTART
200110102000,
1002200010102000,
1000200110102000,
1002200010102000,
1000200110102000,
1002200010102000,
1000200110102000,
#GOGOEND
3,
3,
1111,
1010,
1111,
10200120,
10200120,
10200120,
10200120,
10101011,
1110,
10101011,
1110,
2222,
2222,
22222222,
3,
3000100010020010,
01
#GOGOSTART
401120,
1000200010222000,
10201120,
10201120,
1020111110102000,
10201120,
10201122,
10201120,
1020111110002000,
10201120,
10201120,
1000200010020010,
01201020,
10201120,
10201120,
#GOGOEND
3,
,
,
,
2000200020020020,
0020020020020020,
2000200020020020,
01202220,
#END
COURSE:Oni
LEVEL:10
SCOREINIT:
SCOREDIFF:
#START
31210202,
00120202,
00120205,
00800121,
02010202,
00120201,
02020205,
0800,
1022102010221222,
1022102010221222,
1022102010221222,
1022102010221222,
1222122212221222,
1222122212221222,
102020102020102020102020100200100200100000100000,
3020120122112000,
3000200030040040,
0020
#GOGOSTART
#SCROLL 1.5
3
#SCROLL 1
02010120120,
1010201210210120,
1020201210212020,
1010201210120120,
1020220120120120,
1021210120120220,
1020201210122020,
1010201210120120,
1020210110122020,
1010201210212020,
1010201210222020,
1020212010120120,
1020220120110120,
1021201021022020,
1010201120102020,
#GOGOEND
1022102010221222,
1022102010221222,
1022102010221222,
1022102010221222,
1222122212221222,
1222122212221222,
102020102020102020102020100200100200100000100000,
3,
#GOGOSTART
3010201202112021,
1101202120102111,
1010201202112021,
1120120121102011,
1010201202112021,
1101202120102111,
1010201202112021,
#GOGOEND
1120120121102011,
1010
#GOGOSTART
#SCROLL 1.5
4
#SCROLL 1
02202102212,
1011202201222020,
1101201201122011,
1210220212122020,
1010202202102212,
1011202201222020,
1101201202021202,
#GOGOEND
1,
31210202,
00120202,
00120205,
00800121,
02010202,
00120201,
02020205,
0800,
1022102010221222,
1022102010221222,
1022102010221222,
1022102010221222,
1222122212221222,
1222122212221222,
102020102020102020102020100200100200100000100000,
3020120122112000,
3000200010020010,
0020
#GOGOSTART
#SCROLL 2
3
#SCROLL 1
01020120120,
1101201210120120,
100000101010200000100000200000100100200000100200,
1010201210120120,
1010210120120120,
1012201120120120,
100111200100200222100100,
3011201210120120,
1120210120120120,
1021201210120220,
100000101010200000100000200000100100200000100200,
1011201210120120,
1101210120120120,
1021201210120120,
100000101010200000100000200000200100200000100200,
#GOGOEND
1000200010020020,
0020010020020020,
1000200020020020,
01212122,
2000100020020020,
0020010020020020,
2000100020020020,
01222220,
#END