Files
2025-06-11 19:53:16 -04:00

356 lines
3.6 KiB
Plaintext
Raw Permalink Blame History

This file contains ambiguous Unicode characters
This file contains Unicode characters that might be confused with other characters. If you think that this is intentional, you can safely ignore this warning. Use the Escape button to reveal them.
TITLE:Broken
SUBTITLE:--Matduke / Project OutFox:Serenity
TITLEJA:Broken
SUBTITLEJA:Matduke 「Project OutFox:Serenity」より
PREIMAGE:Broken.jpg
WAVE:Broken.ogg
BPM:128
OFFSET:-0.316
DEMOSTART:57.503
MAKER:Colin
COURSE:Easy
LEVEL:2
SCOREINIT:
SCOREDIFF:
NOTESDESIGNER0:Colin
#START
#MEASURE 2/4
00,
#MEASURE 4/4
0,
,
1,
,
0100,
,
1,
1010,
1,
2020,
2,
,
1010,
1,
2220,
2020,
1110,
1010,
2020,
2,
1111,
1,
1011,
1010,
1,
2020,
2022,
2,
1111,
1,
#GOGOSTART
3110,
2220,
1010,
1110,
2020,
2220,
1010,
1110,
1110,
2220,
1010,
1110,
2020,
2220,
1010,
1110,
#GOGOEND
4020,
2,
2020,
2,
2020,
2,
2020,
2,
#GOGOSTART
3010,
1110,
2020,
2220,
1010,
1110,
2020,
2,
#GOGOEND
4,
,
1,
1,
1,
,
2,
,
#END
COURSE:Normal
LEVEL:5
SCOREINIT:
SCOREDIFF:
NOTESDESIGNER1:Colin
#START
#MEASURE 2/4
00,
#MEASURE 4/4
0,
,
1,
00000001,
11100000,
,
1010,
10111000,
1010,
20222020,
2020,
2,
10001011,
1,
2220,
20022020,
1110,
10011000,
2220,
20222000,
10101110,
1,
10111010,
1010,
10002022,
2220,
20002022,
2220,
10111110,
1,
#GOGOSTART
3111,
2220,
10111010,
1110,
20202022,
2220,
1110,
10111000,
1110,
20222000,
1110,
10111000,
2220,
20222000,
1110,
10111000,
#GOGOEND
4220,
2220,
2220,
2220,
20222020,
2020,
20222020,
2020,
#GOGOSTART
3110,
10111010,
20002022,
2220,
1110,
10111010,
2220,
2220,
#GOGOEND
4,
,
1,
1,
1,
,
2,
,
#END
COURSE:Hard
LEVEL:4
BALLOON:24
SCOREINIT:
SCOREDIFF:
NOTESDESIGNER2:Colin
#START
#MEASURE 2/4
00,
#MEASURE 4/4
0,
,
1,
00000001,
11100000,
,
10201021,
20102021,
1212,
10201021,
1000201020020000,
0000201020020010,
10201002,
1000000020020020,
1000200100101000,
1000200100201000,
1000200100102000,
1000200200201000,
1000200100102000,
1000200200201000,
1000200100102000,
1000200200102000,
10201220,
10210110,
10201220,
10210110,
10201220,
10210110,
7,
0084,
#GOGOSTART
3010200110102010,
1010200110102000,
1010200110102010,
1010200110102020,
10201122,
1000200110102000,
10201122,
1000201110102220,
3010200110102010,
1010200110102000,
1010200110102010,
1010200110102020,
10201122,
1000200110102000,
10201122,
1000201110102220,
#GOGOEND
10200120,
10200120,
10200120,
10200120,
10200120,
10200120,
10200120,
10201120,
#GOGOSTART
1000200100101020,
1000200100101000,
1000200100101020,
1000200100101000,
1000200100101020,
1000200100101000,
1000200100101020,
1000200100101000,
#GOGOEND
4,
2020200200202020,
2000200200202020,
2000200200202020,
2000200020002002,
0020020020020020,
2000200020002002,
0020022020202010,
#END
COURSE:Oni
LEVEL:8
BALLOON:36
SCOREINIT:
SCOREDIFF:
NOTESDESIGNER3:Colin
#START
#MEASURE 2/4
00,
#MEASURE 4/4
0212,
0010020020020010,
2212,
0010020020020010,
2212,
0010020020020010,
4212,
10201021,
1212,
10202021,
1000201020020000,
0000201020021020,
12121001,
1010001010020020,
3000200100201020,
1000200100102010,
2010201201202010,
2010201201202010,
2010201201202010,
2010201201202010,
2010201201202010,
2010201201202211,
2010201120120221,
2010201120120220,
2010201120120221,
2010201120120220,
2010201120120221,
2010201120120220,
9,
0084,
#GOGOSTART
3020220110202012,
1020220210202122,
1020120210202120,
1020120111202120,
1020220210202120,
1020120201102120,
1120220201202120,
1020120210212222,
1020220110202012,
1020220210202122,
1020120210202120,
1020120111202120,
1020220210202120,
1020120201102120,
1120220201202120,
1020120210212222,
#GOGOEND
1020102010210120,
1010201201102120,
1020102102102022,
1010201201201120,
1020102102102120,
1010201201201020,
1010202101201020,
1020102201201122,
#GOGOSTART
1020102102102020,
1020111201202122,
1020102101102120,
1020102201201122,
1020102102102020,
1020111201202122,
1020102101102120,
1020102201201122,
#GOGOEND
2010201201202010,
2010201201202010,
2010201201202010,
2010201201202010,
2010200020002002,
0010020010020010,
2000200010002001,
0010022010101010,
#END