Files
2025-06-11 19:53:16 -04:00

1457 lines
15 KiB
Plaintext

TITLE:FunkBoi
SUBTITLE:--SenPi / OpenTaiko
SUBTITLEJA:SenPi「OpenTaiko」より
BPM:185
WAVE:FunkBoi.ogg
PREIMAGE:FunkBoi.png
OFFSET:0
DEMOSTART:10.3784
MAKER:Komi, Colin, Shoxk & DragonRatTiger
COURSE:Easy
LEVEL:2
BALLOON:12,6,16
SCOREINIT:
SCOREDIFF:
NOTESDESIGNER0:DragonRatTiger
#START
3,
,
3,
3,
1010,
1010,
6,
8,
#GOGOSTART
1,
1010,
1,
1,
1010,
1,
2,
2,
1,
1010,
1,
1010,
3,
3,
9,
,
#GOGOEND
8,
2,
2,
2020,
2,
2,
2,
2020,
2,
1,
1010,
1,
1,
1010,
1,
7,
8,
3,
,
1,
,
1,
1,
1010,
1010,
2,
2,
2020,
2,
2,
2020,
2,
5080,
#GOGOSTART
3,
4,
3,
4,
3,
4,
3040,
3040,
#GOGOEND
1,
1,
1010,
1010,
#GOGOSTART
9,
,
,
#GOGOEND
8,
#GOGOSTART
1,
1010,
1,
1010,
1,
1010,
1,
1,
2,
2020,
2,
2020,
2,
2,
6,
8,
#GOGOEND
1,
1,
2020,
2020,
3,
,
,
#END
COURSE:Normal
LEVEL:6
SCOREINIT:
SCOREDIFF:
NOTESDESIGNER1:Komi
#START
2,
00000002,
2,
20000200,
20202002,
20202002,
2222,
4,
#GOGOSTART
10110010,
0121,
10110010,
0211,
10110010,
0121,
10110010,
00222010,
10110010,
0121,
10110010,
0211,
10110010,
0121,
10111000,
2222,
#GOGOEND
2,
10010010,
01002020,
20020020,
02001010,
10010010,
01002020,
20020020,
20222020,
10010010,
01002020,
20020020,
02001010,
10010010,
01002020,
2222,
11111111,
10002002,
22002002,
20002002,
22002002,
20002002,
22002002,
20002002,
22002000,
10100100,
10100100,
10100100,
10100100,
10100100,
10100100,
10100100,
1111,
#GOGOSTART
11010101,
11010101,
11010101,
10101110,
11010101,
11101010,
11010101,
10222022,
#GOGOEND
2020,
2020,
2020,
2020,
#GOGOSTART
20222020,
20222020,
22202222,
#MEASURE 1/16
#GOGOEND
2,
#SCROLL 2
0,
#SCROLL 1.93333
0,
#SCROLL 1.86667
0,
#SCROLL 1.8
0,
#SCROLL 1.73333
0,
#SCROLL 1.66667
0,
#SCROLL 1.6
0,
#SCROLL 1.53333
0,
#SCROLL 1.46667
0,
#SCROLL 1.4
0,
#SCROLL 1.33333
0,
#SCROLL 1.26667
0,
#SCROLL 1.2
0,
#SCROLL 1.13333
0,
#SCROLL 1.06667
0,
#MEASURE 4/4
#GOGOSTART
#SCROLL 1
10110010,
0121,
11110010,
00202220,
10110010,
0121,
10110010,
00222010,
10110010,
0121,
11110010,
00202220,
10110010,
0121,
10111010,
22222222,
#GOGOEND
2,
1,
2020,
2010,
G,
,
,
#END
COURSE:Hard
LEVEL:7
BALLOON:15,15
SCOREINIT:
SCOREDIFF:
NOTESDESIGNER2:Shoxk
#START
3,
00000303,
3,
30000303,
1000100010010010,
3000100010010010,
11111111,
70000008,
#GOGOSTART
30210122,
1000201000102220,
10210122,
1000201000111010,
10210122,
1000201000102220,
10210122,
1010222010101010,
30210121,
1000201000102220,
10210121,
1000201000111010,
30210121,
3000201000102220,
32223222,
32323030,
#GOGOEND
5008,
3001201000102010,
0010201110102010,
1001201000102010,
0010222010102010,
3001201000102001,
0010202010102220,
3001201000102001,
0010222010101010,
3001201000102010,
0010201110102010,
1001201000102010,
0010222010102010,
3001201000102000,
3010202010222020,
3111,
12121212,
30220202,
22022020,
20220220,
22022022,
40220202,
22022222,
40220202,
1020102011101010,
30120120,
12120122,
10120120,
1020102010222020,
30120120,
12120122,
10120120,
1020202022202020,
#GOGOSTART
3001201000102010,
0010202011102000,
1001201000102010,
0010202011102020,
3001201000102010,
0010202011102000,
32221222,
3020102022201010,
#GOGOEND
32020202,
32020202,
32020202,
32020202,
#GOGOSTART
1010101011101000,
1010101110101000,
1110101011101010,
#GOGOEND
5008,
#GOGOSTART
30210122,
1000202011102000,
10210122,
1000202011102020,
11210121,
1000101022201000,
12212120,
70000008,
31212120,
22121110,
11212220,
1020201011102000,
32121120,
32221210,
3232,
32323232,
#GOGOEND
30212210,
10212210,
30212212,
10112222,
3,
,
,
#END
COURSE:Oni
LEVEL:9
SCOREINIT:
SCOREDIFF:
NOTESDESIGNER3:Colin
#START
41210122,
11210414,
41210122,
4022101120401040,
4010401040040040,
4010401040120022,
200100100100200000101010200000101010200000200000,
3020212020112120,
#GOGOSTART
4010201120102022,
1010201022112020,
1010201122102022,
1011202022112010,
1011201022112020,
1011201022112020,
1010201120102022,
100000100000200000101010200000100200100200200200,
1010201120102022,
1010201022112020,
1010201122102022,
1011202022112010,
3011201022112010,
3011201022112010,
4020120210201022,
1020102101202222,
#GOGOEND
1022112220004040,
1011201101102020,
1010201111102021,
1011201101102021,
1010201111102021,
1011201101102021,
1010201111102021,
1011201101102021,
1012202202202222,
1011201101102020,
1010201111102021,
1011201101102021,
1010201111102021,
1011201101102021,
100000200000100100100000200000101010200000100100,
22121212,
1010201120102200,
3121,
0121,
0121,
0121,
0121,
0121,
0121,
00102033,
3000201110102012,
1010202210102011,
1011201110102011,
2010201110102011,
1010201110102011,
2010201110102011,
1010201110101022,
1022102211202222,
#GOGOSTART
1010201110202211,
2020201110201120,
2020221120202012,
2020222011221020,
1020112010210110,
2020111010201111,
2020221120222010,
200000200000200000200000202020200000200000200200,
#GOGOEND
22010201,
42010201,
42010201,
42012211,
#GOGOSTART
4020202210202010,
400000200000200000200200100000101010200000101010,
200200200111200111200200,
#GOGOEND
400000200200200200200200200200200200200000101010,
#GOGOSTART
2022101020112020,
1011201022101222,
2022201020112020,
1022202011112222,
1011201020102022,
1011201020102222,
22212121,
200000100100100000202020200000200200200200200200,
1022101020112020,
1011201022101222,
2022201020102020,
1022202011112222,
1011201020102022,
1011201020102222,
2020110210102022,
000200100200100000200100000100200000100000202020,
#GOGOEND
10210122,
10210122,
10112010,
2020122020102222,
#MEASURE 1/32
#SCROLL 4
3,
#SCROLL -2.4
0,
#SCROLL -2.37143
0,
#SCROLL -2.34286
0,
#MEASURE 1/24
#SCROLL -2.31429
000
#SCROLL -2.28571
0,
0
#SCROLL -2.25714
0,
0
#SCROLL -2.22857
000,
#SCROLL -2.2
000
#SCROLL -2.17143
0,
0
#SCROLL -2.14286
0,
0
#SCROLL -2.11429
000,
#MEASURE 1/16
#SCROLL -2.08571
0
#SCROLL -2.05714
0,
#SCROLL -2.02857
0
#SCROLL -2
0,
#SCROLL -1.97143
0
#SCROLL -1.94286
0,
#SCROLL -1.91429
0
#SCROLL -1.88571
0,
#MEASURE 1/12
#SCROLL -1.85714
000
#SCROLL -1.82857
000
#SCROLL -1.8
00,
0
#SCROLL -1.77143
000
#SCROLL -1.74286
000
#SCROLL -1.71429
0,
00
#SCROLL -1.68571
000
#SCROLL -1.65714
000,
#MEASURE 1/8
#SCROLL -1.62857
0
#SCROLL -1.6
0
#SCROLL -1.57143
0
#SCROLL -1.54286
0,
#SCROLL -1.51429
0
#SCROLL -1.48571
0
#SCROLL -1.45714
0
#SCROLL -1.42857
0,
#SCROLL -1.4
0
#SCROLL -1.37143
0
#SCROLL -1.34286
0
#SCROLL -1.31429
0,
#MEASURE 1/6
#SCROLL -1.28571
000
#SCROLL -1.25714
000
#SCROLL -1.22857
000
#SCROLL -1.2
000
#SCROLL -1.17143
000
#SCROLL -1.14286
0,
00
#SCROLL -1.11429
000
#SCROLL -1.08571
000
#SCROLL -1.05714
000
#SCROLL -1.02857
000
#SCROLL -1
00,
0
#SCROLL -0.971429
000
#SCROLL -0.942857
000
#SCROLL -0.914286
000
#SCROLL -0.885714
000
#SCROLL -0.857143
000,
#MEASURE 1/4
#SCROLL -0.828571
0
#SCROLL -0.8
0
#SCROLL -0.771429
0
#SCROLL -0.742857
0
#SCROLL -0.714286
0
#SCROLL -0.685714
0
#SCROLL -0.657143
0
#SCROLL -0.628571
0,
#MEASURE 4/4
#SCROLL -0.6
0,
#END
COURSE:Edit
LEVEL:10.6
SCOREINIT:
SCOREDIFF:
NOTESDESIGNER4:Komi
#START
#BARLINEOFF
#SCROLL 4
G,
00000G0G,
G,
#BARLINEON
#SCROLL 2
400
#SCROLL 1.5
000000000100000000000100000200000200020002000200000000000
#SCROLL 2
400000000000
#SCROLL 1.5
200000200000
#SCROLL 2
400000000000,
40
#SCROLL 1.5
10
#SCROLL 2
40
#SCROLL 1.5
10
#SCROLL 2
40
#SCROLL 1.5
1
#SCROLL 2
40
#SCROLL 1.5
1
#SCROLL 2
40,
40
#SCROLL 1.5
10
#SCROLL 2
40
#SCROLL 1.5
10
#SCROLL 2
40
#SCROLL 1.5
1
#SCROLL 2
40
#SCROLL 1.5
122,
200100100100200100101010200100101010202020101010,
2
#SCROLL 1
000100020101000
#SCROLL 2
4
#SCROLL 1
000202020002000,
#GOGOSTART
11
#SCROLL 1.1
2
#SCROLL 1
01010
#SCROLL 1.1
2
#SCROLL 1
0112020,
20
#SCROLL 1.1
2
#SCROLL 1
12210
#SCROLL 1.1
2
#SCROLL 1
0112010,
11
#SCROLL 1.1
2
#SCROLL 1
01010
#SCROLL 1.1
2
#SCROLL 1
0112020,
10
#SCROLL 1.1
2
#SCROLL 1
12211
#SCROLL 1.1
2
#SCROLL 1
011
#SCROLL 1.1
2
#SCROLL 1
0
#SCROLL 1.1
2
#SCROLL 1
0,
11
#SCROLL 1.1
2
#SCROLL 1
01010
#SCROLL 1.1
2
#SCROLL 1
0112020,
20
#SCROLL 1.1
2
#SCROLL 1
12210
#SCROLL 1.1
2
#SCROLL 1
0112010,
22
#SCROLL 1.1
2
#SCROLL 1
01020
#SCROLL 1.1
2
#SCROLL 1
0112211,
100000100000100000202020200100200100200100100100,
21
#SCROLL 1.1
2
#SCROLL 1
01010
#SCROLL 1.1
2
#SCROLL 1
0112020,
20
#SCROLL 1.1
2
#SCROLL 1
12210
#SCROLL 1.1
2
#SCROLL 1
0112010,
11
#SCROLL 1.1
2
#SCROLL 1
01010
#SCROLL 1.1
2
#SCROLL 1
0112020,
10
#SCROLL 1.1
2
#SCROLL 1
12211
#SCROLL 1.1
2
#SCROLL 1
011
#SCROLL 1.1
2
#SCROLL 1
0
#SCROLL 1.1
2
#SCROLL 1
0,
11
#SCROLL 1.1
2
#SCROLL 1
01010
#SCROLL 1.1
2
#SCROLL 1
0112020,
20
#SCROLL 1.1
2
#SCROLL 1
12210
#SCROLL 1.1
2
#SCROLL 1
0112010,
#SCROLL 1.15
2
#SCROLL 1.16667
2
#SCROLL 1.18333
2
#SCROLL 1.2
2
#SCROLL 1.21667
2
#SCROLL 1.23333
2
#SCROLL 1.25
10
#SCROLL 1.15
2
#SCROLL 1.16667
2
#SCROLL 1.18333
2
#SCROLL 1.2
2
#SCROLL 1.21667
2
#SCROLL 1.23333
2
#SCROLL 1.25
10,
200200100100200200100100200200100100202020202020,
#GOGOEND
100
#SCROLL 1
000000000100000000000100000200000200020002000200000000000000000000000
#SCROLL 2
400000000000400000000000,
#SCROLL 2
4
#SCROLL 1
002101212101002,
1010101122101002,
1002101212101002,
1010101122101002,
#SCROLL 2
4
#SCROLL 1
002101212101002,
1010101122101002,
1002101212101002,
#SCROLL 2
4
#SCROLL 1
011101101102222,
#SCROLL 2
4
#SCROLL 1
012101122101022,
1012101222101022,
1012101122101022,
1012101222101022,
#SCROLL 2
4
#SCROLL 1
011222210112222,
#SCROLL 2
400
#SCROLL 1
000100200200100100200100000101010200100200100,
#SCROLL 2
4
#SCROLL 1
0
#SCROLL 0.928571
20
#SCROLL 0.857143
10
#SCROLL 0.785714
20
#SCROLL 0.714286
10
#SCROLL 0.642857
20
#SCROLL 0.571429
10
#SCROLL 0.5
20,
#MEASURE 1/8
#SCROLL 1.1
1,
#SCROLL 1.2
2,
#SCROLL 1.3
1,
#SCROLL 1.4
2,
#SCROLL 1.5
1,
2,
1,
2,
#MEASURE 4/4
G00
#BARLINEOFF
#SCROLL 1
000
#SCROLL 0.5
000000000000000000200000000000200000000000000000002000200000000000000000000000200000000000,
02022222,
F00000200200002200000200,
02022222,
#SCROLL 2
400
#SCROLL 0.5
000000000200000200000000020200000000000200000,
02022222,
#SCROLL 2
400
#SCROLL 0.5
000000000200000200000000020200000000000200000,
#SCROLL 2
4
#SCROLL 0.5
02000202020
#SCROLL 2
3030,
#BARLINEON
400
#SCROLL 1
000100000200010200000100000200010200000100100,
200200100000200010200000100000200010200000100100,
100000100000200010200000100000200010200000100100,
200200100000200010200000100000200010200000100100,
#BARLINEON
#SCROLL 2
400
#SCROLL 1
000100000200010200000100000200010200000100100,
200200100000200010200000100000200010200000100100,
100000100000200010200000100000200010200000100100,
#MEASURE 1/16
#SCROLL 1
2,
#SCROLL 1.01667
2,
#SCROLL 1.03333
1,
#SCROLL 1.05
1,
#SCROLL 1.06667
2,
#SCROLL 1.08333
2,
#SCROLL 1.1
1,
#SCROLL 1.11667
1,
#SCROLL 1.13333
2,
#SCROLL 1.15
2,
#SCROLL 1.16667
1,
#SCROLL 1.18333
1,
#SCROLL 1.2
2,
#SCROLL 1.21667
2,
#SCROLL 1.23333
1,
#SCROLL 1.25
1,
#MEASURE 4/4
#GOGOSTART
1120201011211022,
1021201122101022,
1120201011211022,
202020200200100000100000102020100200100000100200,
#SCROLL 2
4
#SCROLL 1.25
210102212202021,
#SCROLL 2
400
#SCROLL 1.25
100200000200000200200102020100200100000100100,
#SCROLL 2
4
#SCROLL 1.25
111212112212111,
#SCROLL 2
400
#SCROLL 1.25
100100200100000100000202020200000100000200100,
#MEASURE 2/4
#GOGOEND
#SCROLL 2
4
#SCROLL 1
0001010,
#SCROLL 1.15
2
#SCROLL 1
0001000,
#SCROLL 1.15
2
#SCROLL 1
0001010,
#SCROLL 1.15
2
#SCROLL 1
0101010,
#SCROLL 1.15
2
#SCROLL 1
0111110,
#SCROLL 1.15
2
#SCROLL 1
0112210,
#SCROLL 1.15
2
#SCROLL 1
0111111,
#SCROLL 1.15
2
#SCROLL 1
1212121,
#MEASURE 4/4
#GOGOSTART
#SCROLL 1.5
40
#SCROLL 1.52083
40
#SCROLL 1.54167
40
#SCROLL 1.5625
2
#SCROLL 1.57292
2
#SCROLL 1.58333
20
#SCROLL 1.60417
40
#SCROLL 1.625
40
#SCROLL 1.64583
40,
#SCROLL 1.66667
400000
#SCROLL 1.6875
400000
#SCROLL 1.70833
400000
#SCROLL 1.72917
200
#SCROLL 1.73958
200
#SCROLL 1.75
200
#SCROLL 1.76042
200
#SCROLL 1.77083
20
#SCROLL 1.77778
20
#SCROLL 1.78472
20
#SCROLL 1.79167
200000
#SCROLL 1.8125
20
#SCROLL 1.81944
20
#SCROLL 1.82639
20,
#SCROLL 1.83333
200000
#SCROLL 1.85417
200
#SCROLL 1.86458
200
#SCROLL 1.875
200000
#SCROLL 1.89583
20
#SCROLL 1.90278
20
#SCROLL 1.90972
20
#SCROLL 1.91667
200000
#SCROLL 1.9375
20
#SCROLL 1.94444
20
#SCROLL 1.95139
20
#SCROLL 1.95833
200
#SCROLL 1.96875
200
#SCROLL 1.97917
20
#SCROLL 1.98611
20
#SCROLL 1.99306
20,
#GOGOEND
#SCROLL 2
200
#SCROLL 1.95312
100
#SCROLL 1.90625
200
#SCROLL 1.85938
100
#SCROLL 1.8125
200
#SCROLL 1.76562
100
#SCROLL 1.71875
200
#SCROLL 1.67188
100
#SCROLL 1.625
200
#SCROLL 1.57812
100
#SCROLL 1.53125
200
#SCROLL 1.48438
100
#SCROLL 1.4375
20
#SCROLL 1.40625
10
#SCROLL 1.375
10
#SCROLL 1.34375
200
#SCROLL 1.29688
100,
#GOGOSTART
#SCROLL 1.25
21
#SCROLL 1.35
2
#SCROLL 1.25
01010
#SCROLL 1.35
2
#SCROLL 1.25
0112020,
200000
#SCROLL 1.35
200
#SCROLL 1.25
100200200100000
#SCROLL 1.35
200
#SCROLL 1.25
000100100200100102020,
11
#SCROLL 1.35
2
#SCROLL 1.25
21010
#SCROLL 1.35
2
#SCROLL 1.25
0112020,
20
#SCROLL 1.35
2
#SCROLL 1.25
12210
#SCROLL 1.35
2
#SCROLL 1.25
112
#SCROLL 1.35
2
#SCROLL 1.25
1
#SCROLL 1.35
2
#SCROLL 1.25
1,
#SCROLL 1.25
11
#SCROLL 1.35
2
#SCROLL 1.25
21010
#SCROLL 1.35
2
#SCROLL 1.25
0112020,
200000
#SCROLL 1.35
200
#SCROLL 1.25
100200200100000
#SCROLL 1.35
200
#SCROLL 1.25
000100100200100102020,
11
#SCROLL 1.35
2
#SCROLL 1.25
01010
#SCROLL 1.35
2
#SCROLL 1.25
0112020,
200000100200100000202020200100200100200100100100,
#SCROLL 2
4
#SCROLL 1.25
122101020112020,
200000200100200200100000200000100100200100102020,
1122101020112020,
2021221021122121,
1122101020112020,
#SCROLL 2
400
#SCROLL 1.25
000200100200200100000200000100100200100102020,
#SCROLL 2
400
#SCROLL 1.25
000100000200100000100
#SCROLL 2
400
#SCROLL 1.35
000100000202020202020,
#SCROLL 2
400
#SCROLL 1.45
000100100
#SCROLL 2
400
#SCROLL 1.55
000100100
#SCROLL 2
400
#SCROLL 1.65
000100100
#SCROLL 2
400
#SCROLL 1.75
100101010,
#GOGOEND
#SCROLL 2
4
#SCROLL 1
010101020111020,
1110101020111120,
#SCROLL 1.1
2
#SCROLL 1
111
#SCROLL 1.1
2
#SCROLL 1
111,
#SCROLL 1.1
200000
#SCROLL 1
100000100200202020200000200000200200200000,
#MEASURE 1/32
#SCROLL 4
G,
#SCROLL -2.4
0,
#SCROLL -2.37143
0,
#SCROLL -2.34286
0,
#MEASURE 1/24
#SCROLL -2.31429
000
#SCROLL -2.28571
0,
0
#SCROLL -2.25714
0,
0
#SCROLL -2.22857
000,
#SCROLL -2.2
000
#SCROLL -2.17143
0,
0
#SCROLL -2.14286
0,
0
#SCROLL -2.11429
000,
#MEASURE 1/16
#SCROLL -2.08571
0
#SCROLL -2.05714
0,
#SCROLL -2.02857
0
#SCROLL -2
0,
#SCROLL -1.97143
0
#SCROLL -1.94286
0,
#SCROLL -1.91429
0
#SCROLL -1.88571
0,
#MEASURE 1/12
#SCROLL -1.85714
000
#SCROLL -1.82857
000
#SCROLL -1.8
00,
0
#SCROLL -1.77143
000
#SCROLL -1.74286
000
#SCROLL -1.71429
0,
00
#SCROLL -1.68571
000
#SCROLL -1.65714
000,
#MEASURE 1/8
#SCROLL -1.62857
0
#SCROLL -1.6
0
#SCROLL -1.57143
0
#SCROLL -1.54286
0,
#SCROLL -1.51429
0
#SCROLL -1.48571
0
#SCROLL -1.45714
0
#SCROLL -1.42857
0,
#SCROLL -1.4
0
#SCROLL -1.37143
0
#SCROLL -1.34286
0
#SCROLL -1.31429
0,
#MEASURE 1/6
#SCROLL -1.28571
000
#SCROLL -1.25714
000
#SCROLL -1.22857
000
#SCROLL -1.2
000
#SCROLL -1.17143
000
#SCROLL -1.14286
0,
00
#SCROLL -1.11429
000
#SCROLL -1.08571
000
#SCROLL -1.05714
000
#SCROLL -1.02857
000
#SCROLL -1
00,
0
#SCROLL -0.971429
000
#SCROLL -0.942857
000
#SCROLL -0.914286
000
#SCROLL -0.885714
000
#SCROLL -0.857143
000,
#MEASURE 1/4
#SCROLL -0.828571
0
#SCROLL -0.8
0
#SCROLL -0.771429
0
#SCROLL -0.742857
0
#SCROLL -0.714286
0
#SCROLL -0.685714
0
#SCROLL -0.657143
0
#SCROLL -0.628571
0,
#MEASURE 4/4
#SCROLL -0.6
0,
#END