generated from DragonRatTiger/Custom-Charts
422 lines
3.4 KiB
Plaintext
422 lines
3.4 KiB
Plaintext
TITLE:Heartbeat
|
||
SUBTITLE:--Matduke / Project OutFox:Serenity
|
||
TITLEJA:Heartbeat
|
||
SUBTITLEJA:Matduke 「Project OutFox:Serenity」より
|
||
PREIMAGE:Heartbeat.png
|
||
WAVE:Heartbeat.ogg
|
||
BPM:170
|
||
OFFSET:0
|
||
DEMOSTART:73.412
|
||
MAKER:Colin
|
||
|
||
COURSE:Easy
|
||
LEVEL:3
|
||
BALLOON:25
|
||
SCOREINIT:
|
||
SCOREDIFF:
|
||
NOTESDESIGNER0:Colin
|
||
|
||
#START
|
||
,
|
||
,
|
||
1,
|
||
,
|
||
1,
|
||
,
|
||
1,
|
||
,
|
||
2,
|
||
,
|
||
2,
|
||
,
|
||
2,
|
||
,
|
||
2,
|
||
,
|
||
1010,
|
||
1,
|
||
1010,
|
||
1,
|
||
2020,
|
||
2,
|
||
1,
|
||
1,
|
||
9,
|
||
,
|
||
,
|
||
,
|
||
,
|
||
,
|
||
,
|
||
8,
|
||
3010,
|
||
1,
|
||
2020,
|
||
2,
|
||
1010,
|
||
1,
|
||
2020,
|
||
2,
|
||
1,
|
||
1,
|
||
1,
|
||
1,
|
||
1,
|
||
1,
|
||
1,
|
||
1,
|
||
3,
|
||
,
|
||
,
|
||
,
|
||
#GOGOSTART
|
||
3010,
|
||
1110,
|
||
2020,
|
||
2220,
|
||
1010,
|
||
1110,
|
||
2020,
|
||
222
|
||
#GOGOEND
|
||
0,
|
||
#GOGOSTART
|
||
1010,
|
||
1110,
|
||
2020,
|
||
2220,
|
||
1010,
|
||
1110,
|
||
2020,
|
||
1011,
|
||
1010,
|
||
1110,
|
||
2020,
|
||
2220,
|
||
1010,
|
||
1110,
|
||
2020,
|
||
222
|
||
#GOGOEND
|
||
0,
|
||
#GOGOSTART
|
||
1010,
|
||
1110,
|
||
2020,
|
||
2220,
|
||
1010,
|
||
1110,
|
||
2020,
|
||
2220,
|
||
#GOGOEND
|
||
3,
|
||
#END
|
||
|
||
COURSE:Normal
|
||
LEVEL:4
|
||
BALLOON:40
|
||
SCOREINIT:
|
||
SCOREDIFF:
|
||
NOTESDESIGNER1:Colin
|
||
|
||
#START
|
||
,
|
||
,
|
||
1,
|
||
,
|
||
1,
|
||
,
|
||
1,
|
||
,
|
||
2,
|
||
,
|
||
2,
|
||
,
|
||
2,
|
||
,
|
||
2,
|
||
,
|
||
10011000,
|
||
1110,
|
||
10011000,
|
||
1110,
|
||
20022000,
|
||
2220,
|
||
1010,
|
||
1,
|
||
9,
|
||
,
|
||
,
|
||
,
|
||
,
|
||
,
|
||
,
|
||
8,
|
||
3110,
|
||
10111000,
|
||
2220,
|
||
20222000,
|
||
1110,
|
||
10111000,
|
||
2020,
|
||
2220,
|
||
1,
|
||
1,
|
||
1110,
|
||
1,
|
||
1,
|
||
1,
|
||
1011,
|
||
1010,
|
||
3,
|
||
,
|
||
,
|
||
,
|
||
#GOGOSTART
|
||
30101011,
|
||
1110,
|
||
20202022,
|
||
2220,
|
||
10101011,
|
||
1110,
|
||
20202022,
|
||
222
|
||
#GOGOEND
|
||
0,
|
||
#GOGOSTART
|
||
10111010,
|
||
1110,
|
||
20222020,
|
||
2220,
|
||
10111010,
|
||
1110,
|
||
20222020,
|
||
1011,
|
||
10011010,
|
||
1110,
|
||
20022020,
|
||
2220,
|
||
10011010,
|
||
1110,
|
||
20022020,
|
||
202220
|
||
#GOGOEND
|
||
00,
|
||
#GOGOSTART
|
||
10011011,
|
||
1110,
|
||
20022022,
|
||
2220,
|
||
10011011,
|
||
1110,
|
||
20002022,
|
||
20222020,
|
||
#GOGOEND
|
||
3,
|
||
#END
|
||
|
||
COURSE:Hard
|
||
LEVEL:5
|
||
BALLOON:85
|
||
SCOREINIT:
|
||
SCOREDIFF:
|
||
NOTESDESIGNER2:Colin
|
||
|
||
#START
|
||
,
|
||
,
|
||
1,
|
||
,
|
||
1,
|
||
,
|
||
1,
|
||
,
|
||
2,
|
||
,
|
||
2,
|
||
,
|
||
2,
|
||
,
|
||
2,
|
||
,
|
||
1220,
|
||
1020,
|
||
1,
|
||
,
|
||
1020,
|
||
1110,
|
||
1,
|
||
,
|
||
9,
|
||
,
|
||
,
|
||
,
|
||
,
|
||
,
|
||
,
|
||
8,
|
||
3001002000002020,
|
||
1001001001002020,
|
||
1001002000002020,
|
||
1001001001002020,
|
||
1001002000002020,
|
||
1001001001002020,
|
||
1001002000002020,
|
||
1001001001002020,
|
||
1111,
|
||
1111,
|
||
1111,
|
||
1111,
|
||
1111,
|
||
1111,
|
||
1111,
|
||
1111,
|
||
3,
|
||
,
|
||
,
|
||
,
|
||
#GOGOSTART
|
||
3010201110102000,
|
||
1010201001002020,
|
||
1010201110102000,
|
||
1010201001002020,
|
||
1010201110102000,
|
||
1010201001002020,
|
||
1010201110102000,
|
||
101020100100
|
||
#GOGOEND
|
||
2222,
|
||
#GOGOSTART
|
||
2000200010222020,
|
||
11201122,
|
||
1000200010222020,
|
||
1000200010222020,
|
||
11201122,
|
||
1000200010222020,
|
||
11201120,
|
||
1110200010102020,
|
||
1010201110102000,
|
||
1010201001002020,
|
||
1010201110102000,
|
||
1010201001002020,
|
||
1010201110102000,
|
||
1010201001002020,
|
||
1010201110102000,
|
||
101020100100
|
||
#GOGOEND
|
||
2222,
|
||
#GOGOSTART
|
||
20202120,
|
||
11201122,
|
||
10201120,
|
||
11221122,
|
||
10201120,
|
||
10201122,
|
||
10201120,
|
||
1212,
|
||
#GOGOEND
|
||
3,
|
||
#END
|
||
|
||
COURSE:Oni
|
||
LEVEL:9
|
||
BALLOON:110
|
||
SCOREINIT:
|
||
SCOREDIFF:
|
||
NOTESDESIGNER3:Colin
|
||
|
||
#START
|
||
,
|
||
,
|
||
1,
|
||
,
|
||
1,
|
||
,
|
||
1,
|
||
,
|
||
2,
|
||
,
|
||
2,
|
||
,
|
||
2,
|
||
,
|
||
2,
|
||
,
|
||
1211,
|
||
2,
|
||
20020020,
|
||
00000002,
|
||
22020202,
|
||
01000000,
|
||
1,
|
||
,
|
||
9,
|
||
,
|
||
,
|
||
,
|
||
,
|
||
,
|
||
,
|
||
8,
|
||
1102102102102020,
|
||
2012012011012020,
|
||
1102102102102020,
|
||
2012012012012010,
|
||
1102102102102020,
|
||
2012012021012020,
|
||
1102102102102020,
|
||
2012012011012020,
|
||
1002002002002020,
|
||
1001011001002020,
|
||
1002002002002020,
|
||
1001011001002020,
|
||
1002002002002020,
|
||
1001011001002020,
|
||
1002002002002020,
|
||
1001011001002020,
|
||
3,
|
||
,
|
||
,
|
||
,
|
||
#GOGOSTART
|
||
1102012012101122,
|
||
1021012021012020,
|
||
2112012012102020,
|
||
2012012012102122,
|
||
1102012012101122,
|
||
2112012012102020,
|
||
1121012012102122,
|
||
201201201210
|
||
#GOGOEND
|
||
2222,
|
||
#GOGOSTART
|
||
1101202012101020,
|
||
1021012012102120,
|
||
2012012012102020,
|
||
2012012012102020,
|
||
2102201212102020,
|
||
2012022021012010,
|
||
1012022012102020,
|
||
100100100000100100100000100100100000101010100000,
|
||
1102012012101122,
|
||
1021012021012020,
|
||
2112012012102020,
|
||
2012012012102122,
|
||
1102012012101122,
|
||
2112012012102020,
|
||
1121012012102122,
|
||
201201201210
|
||
#GOGOEND
|
||
2222,
|
||
#GOGOSTART
|
||
1101202012101020,
|
||
1021012012102120,
|
||
2012012012102020,
|
||
2012012012102020,
|
||
2102201212102020,
|
||
2012022021012010,
|
||
1012022012102020,
|
||
1022012021012020,
|
||
#GOGOEND
|
||
3,
|
||
#END |