generated from DragonRatTiger/Custom-Charts
480 lines
4.4 KiB
Plaintext
480 lines
4.4 KiB
Plaintext
TITLE:Innocence
|
|
SUBTITLE:--ZERO+ZIBA / pop'n music Lapistoria
|
|
TITLEJA:Innocence
|
|
SUBTITLEJA:ZERO+ZIBA 「pop'n music ラピストリア」より
|
|
PREIMAGE:Innocence.png
|
|
WAVE:Innocence.ogg
|
|
BPM:180
|
|
OFFSET:-0.999
|
|
DEMOSTART:35.665
|
|
GENRE:ゲームミュージック
|
|
MAKER:Colin
|
|
|
|
COURSE:Easy
|
|
LEVEL:3
|
|
SCOREINIT:
|
|
SCOREDIFF:
|
|
NOTESDESIGNER0:Colin
|
|
|
|
#START
|
|
1,
|
|
1,
|
|
1,
|
|
,
|
|
1010,
|
|
1,
|
|
1,
|
|
1,
|
|
,
|
|
,
|
|
4,
|
|
2020,
|
|
2,
|
|
2,
|
|
2,
|
|
2020,
|
|
2,
|
|
2,
|
|
1010,
|
|
1,
|
|
1010,
|
|
1,
|
|
2020,
|
|
2,
|
|
2020,
|
|
2,
|
|
#GOGOSTART
|
|
3,
|
|
1010,
|
|
1011,
|
|
1,
|
|
2020,
|
|
2,
|
|
2022,
|
|
2,
|
|
#GOGOEND
|
|
3,
|
|
3,
|
|
3,
|
|
3,
|
|
4,
|
|
4,
|
|
4,
|
|
4,
|
|
1010,
|
|
1,
|
|
2020,
|
|
2,
|
|
1010,
|
|
1,
|
|
2020,
|
|
4,
|
|
4,
|
|
,
|
|
2,
|
|
,
|
|
2,
|
|
2020,
|
|
2,
|
|
2,
|
|
1,
|
|
1010,
|
|
1,
|
|
1,
|
|
1,
|
|
1010,
|
|
1,
|
|
1,
|
|
#GOGOSTART
|
|
3010,
|
|
1110,
|
|
1010,
|
|
1,
|
|
2020,
|
|
2220,
|
|
2020,
|
|
200000000000000
|
|
#GOGOEND
|
|
0,
|
|
#GOGOSTART
|
|
1010,
|
|
1110,
|
|
1010,
|
|
1,
|
|
2020,
|
|
2220,
|
|
2020,
|
|
2,
|
|
#GOGOEND
|
|
#BPMCHANGE 174
|
|
#SCROLL 1.03448
|
|
3
|
|
#SCROLL 1
|
|
000000000000000,
|
|
,
|
|
#BPMCHANGE 167
|
|
0,
|
|
#BPMCHANGE 164
|
|
0,
|
|
2,
|
|
#BPMCHANGE 160
|
|
2,
|
|
#BPMCHANGE 154
|
|
2,
|
|
#BPMCHANGE 147
|
|
20
|
|
#BPMCHANGE 120
|
|
00,
|
|
#END
|
|
|
|
COURSE:Normal
|
|
LEVEL:4
|
|
SCOREINIT:
|
|
SCOREDIFF:
|
|
NOTESDESIGNER1:Colin
|
|
|
|
#START
|
|
1,
|
|
1,
|
|
1,
|
|
,
|
|
1010,
|
|
1,
|
|
1,
|
|
1,
|
|
,
|
|
,
|
|
4002,
|
|
2220,
|
|
20002022,
|
|
2,
|
|
2022,
|
|
2020,
|
|
2022,
|
|
2,
|
|
1011,
|
|
1010,
|
|
10001001,
|
|
1,
|
|
2022,
|
|
2020,
|
|
20002002,
|
|
2,
|
|
#GOGOSTART
|
|
3010,
|
|
1110,
|
|
10001011,
|
|
1,
|
|
2022,
|
|
2020,
|
|
20002022,
|
|
2,
|
|
#GOGOEND
|
|
3,
|
|
3,
|
|
3,
|
|
3,
|
|
4,
|
|
4,
|
|
4,
|
|
4,
|
|
1011,
|
|
1,
|
|
20222020,
|
|
2,
|
|
10001011,
|
|
1,
|
|
2022,
|
|
4,
|
|
4,
|
|
2020,
|
|
2,
|
|
2020,
|
|
2,
|
|
20002022,
|
|
2,
|
|
2,
|
|
1010,
|
|
1110,
|
|
10001011,
|
|
1010,
|
|
1010,
|
|
1110,
|
|
1010,
|
|
1,
|
|
#GOGOSTART
|
|
30001011,
|
|
1110,
|
|
1111,
|
|
1,
|
|
20022022,
|
|
2220,
|
|
2022,
|
|
200000000000000
|
|
#GOGOEND
|
|
0,
|
|
#GOGOSTART
|
|
1010,
|
|
10101011,
|
|
1011,
|
|
1,
|
|
20002022,
|
|
2220,
|
|
2022,
|
|
2,
|
|
#GOGOEND
|
|
#BPMCHANGE 174
|
|
#SCROLL 1.03448
|
|
3
|
|
#SCROLL 1
|
|
000000000000000,
|
|
,
|
|
#BPMCHANGE 167
|
|
0,
|
|
#BPMCHANGE 164
|
|
0,
|
|
2,
|
|
#BPMCHANGE 160
|
|
2,
|
|
#BPMCHANGE 154
|
|
2,
|
|
#BPMCHANGE 147
|
|
20
|
|
#BPMCHANGE 120
|
|
00,
|
|
#END
|
|
|
|
COURSE:Hard
|
|
LEVEL:7
|
|
SCOREINIT:
|
|
SCOREDIFF:
|
|
NOTESDESIGNER2:Colin
|
|
|
|
#START
|
|
2,
|
|
2020,
|
|
20022020,
|
|
2020,
|
|
2022,
|
|
2020,
|
|
2,
|
|
2022,
|
|
,
|
|
,
|
|
3120,
|
|
10112000,
|
|
1122,
|
|
10012000,
|
|
1120,
|
|
10012000,
|
|
10112210,
|
|
10012020,
|
|
10112011,
|
|
1000101110102000,
|
|
10212011,
|
|
1212,
|
|
10112020,
|
|
1221,
|
|
1212,
|
|
11011020,
|
|
#GOGOSTART
|
|
3010200110202010,
|
|
20221120,
|
|
10221020,
|
|
21201020,
|
|
1010200110102000,
|
|
20211120,
|
|
10212010,
|
|
11201022,
|
|
#GOGOEND
|
|
33044044,
|
|
33044044,
|
|
33044044,
|
|
33040044,
|
|
33044044,
|
|
33044044,
|
|
33044044,
|
|
3,
|
|
3000202220002020,
|
|
2000101110002000,
|
|
1000222220002020,
|
|
10201120,
|
|
1000111110002020,
|
|
10212020,
|
|
1020,
|
|
10112020,
|
|
20002022,
|
|
2220,
|
|
2022,
|
|
2020,
|
|
20022020,
|
|
2020,
|
|
20022020,
|
|
2020,
|
|
10201120,
|
|
1000200010222000,
|
|
10201120,
|
|
10201120,
|
|
10201120,
|
|
10202121,
|
|
20202121,
|
|
3,
|
|
#GOGOSTART
|
|
3000200110102000,
|
|
2022202020000000,
|
|
1010200110102010,
|
|
1000200020222020,
|
|
10121012,
|
|
1000101110001020,
|
|
20212012,
|
|
100020102000202
|
|
#GOGOEND
|
|
0,
|
|
#GOGOSTART
|
|
3000200110102000,
|
|
2022202020000000,
|
|
1010200110102010,
|
|
1000200020222020,
|
|
10121012,
|
|
1000101110001020,
|
|
20212012,
|
|
10212022,
|
|
#GOGOEND
|
|
#BPMCHANGE 174
|
|
#SCROLL 1.03448
|
|
2
|
|
#SCROLL 1
|
|
000000000000000,
|
|
,
|
|
#BPMCHANGE 167
|
|
2222,
|
|
#BPMCHANGE 164
|
|
2,
|
|
2222,
|
|
#BPMCHANGE 160
|
|
2222,
|
|
#BPMCHANGE 154
|
|
2222,
|
|
#BPMCHANGE 147
|
|
22
|
|
#BPMCHANGE 120
|
|
22,
|
|
#END
|
|
|
|
COURSE:Oni
|
|
LEVEL:10
|
|
SCOREINIT:
|
|
SCOREDIFF:
|
|
NOTESDESIGNER3:Colin
|
|
|
|
#START
|
|
12222020,
|
|
10221010,
|
|
1212,
|
|
2121,
|
|
11012020,
|
|
1221,
|
|
1212,
|
|
2125,
|
|
,
|
|
8,
|
|
30212011,
|
|
10112020,
|
|
10112020,
|
|
2011102011102022,
|
|
10212011,
|
|
10112020,
|
|
10112210,
|
|
2011102011102022,
|
|
2010201120102011,
|
|
2011201020121020,
|
|
1011201020212010,
|
|
2021201020212020,
|
|
202020200000200200200200202020200000200200200200,
|
|
202020200000200200200200202020200000200200200200,
|
|
1111222211112222,
|
|
13033040,
|
|
#GOGOSTART
|
|
3010201210102010,
|
|
2011202120202222,
|
|
1011201022112010,
|
|
1011201020102222,
|
|
1010201110102010,
|
|
2010202120102022,
|
|
1011201020112020,
|
|
1111221120112020,
|
|
#GOGOEND
|
|
34444433,
|
|
34444433,
|
|
34444433,
|
|
34440433,
|
|
34444433,
|
|
34444433,
|
|
34444433,
|
|
34444433,
|
|
3000111120002211,
|
|
2000222210002010,
|
|
1000221120002121,
|
|
2000221120002020,
|
|
3000111120002211,
|
|
2000222210002010,
|
|
200000202020200000200000200100000200100000200000,
|
|
4000221120003000,
|
|
30001022,
|
|
10221000,
|
|
10022010,
|
|
1212,
|
|
10112022,
|
|
10112011,
|
|
10112010,
|
|
1011201020002000,
|
|
1111201111201111,
|
|
2011112011112222,
|
|
1111201111201111,
|
|
2011112011112222,
|
|
1111201111201111,
|
|
2121222211112222,
|
|
1111201111201111,
|
|
22022040,
|
|
#GOGOSTART
|
|
3011212122112102,
|
|
1021202121121122,
|
|
1012012122121211,
|
|
2211122121112211,
|
|
2010201210212211,
|
|
2011201120112211,
|
|
2012112112012222,
|
|
100000101010100000200000100000100000200000200
|
|
#GOGOEND
|
|
200,
|
|
#GOGOSTART
|
|
1211201212112222,
|
|
1021202011221012,
|
|
1012012212112021,
|
|
2011202222221111,
|
|
2011201020112010,
|
|
2011201020112222,
|
|
1011222211112222,
|
|
1111211121112222,
|
|
#GOGOEND
|
|
#BPMCHANGE 174
|
|
#SCROLL 1.03448
|
|
1
|
|
#SCROLL 1
|
|
000000000000000,
|
|
2,
|
|
#BPMCHANGE 167
|
|
2222,
|
|
#BPMCHANGE 164
|
|
2,
|
|
2222,
|
|
#BPMCHANGE 160
|
|
2222,
|
|
#BPMCHANGE 154
|
|
2222,
|
|
#BPMCHANGE 147
|
|
22
|
|
#BPMCHANGE 120
|
|
22,
|
|
#END
|