Files
2025-06-11 19:53:16 -04:00

677 lines
7.3 KiB
Plaintext

TITLE:Overclocked (Pocket Size)
SUBTITLE:--DeBisco
BPM:150
WAVE:Overclocked.ogg
PREIMAGE:Overclocked.jpg
OFFSET:0
DEMOSTART:89.6
MAKER:Colin & Komi
COURSE:Edit
LEVEL:8
BALLOON:80
SCOREINIT:
SCOREDIFF:
NOTESDESIGNER4:Colin & Komi
#START
#SCROLL 0.75
3000000000222220,
2222202222202222,
1000222220222220,
2222202222202222,
1000222220222220,
2222202222202222,
1210121212101212,
100000100100200200100000101010100000100100200200,
#GOGOSTART
#SCROLL 1
1011201202102122,
1011201212102022,
1011201202102122,
1011201212102022,
1011201212102122,
1011201202102122,
1011201212102122,
#GOGOEND
#SCROLL 0.75
2222202222202222,
#GOGOSTART
#SCROLL 1
1011201212102122,
1011201212102022,
1011201212102122,
1011201212102022,
1011201212102122,
1011201212102122,
1011201212102122,
1011201212102022,
#MEASURE 1/4
#GOGOEND
#SCROLL 0.8
1,
#SCROLL 0.82
1,
#SCROLL 0.84
1022,
#SCROLL 0.86
12,
#SCROLL 0.88
1,
#SCROLL 0.9
1,
#SCROLL 0.92
1002,
#SCROLL 0.94
12,
#SCROLL 0.96
1,
#SCROLL 0.98
1,
#SCROLL 1
1022,
#SCROLL 1.02
12,
#SCROLL 1.04
1,
#SCROLL 1.06
1,
#SCROLL 1.08
1002,
#SCROLL 1.1
12,
#MEASURE 1/8
#SCROLL 0.9
1,
#SCROLL 0.92
1,
#SCROLL 0.94
1,
#SCROLL 0.96
1,
#SCROLL 0.98
1,
#SCROLL 1
1,
#SCROLL 1.02
1,
#SCROLL 1.04
1,
#SCROLL 1.06
1,
1,
#SCROLL 1.1
1,
#SCROLL 1.12
1,
#SCROLL 1.14
1,
#SCROLL 1.16
1,
#SCROLL 1.18
1,
#SCROLL 1.2
1,
#MEASURE 1/16
#SCROLL 1
1,
#SCROLL 1.02
1,
#SCROLL 1.04
1,
#SCROLL 1.06
1,
#SCROLL 1.08
1,
#SCROLL 1.1
1,
#SCROLL 1.12
1,
#SCROLL 1.14
1,
#SCROLL 1.16
1,
#SCROLL 1.18
1,
#SCROLL 1.2
1,
#SCROLL 1.22
1,
#SCROLL 1.24
1,
#SCROLL 1.26
1,
#SCROLL 1.28
1,
#SCROLL 1.3
1,
#MEASURE 4/4
20001000202010102020100022002020,
#GOGOSTART
20214441,
40004000400010002200200010102000,
20214441,
40004000400010002200200010102000,
2000202240404010,
40004000400010002200200010102000,
20214441,
4040401011121222,
#SCROLL 2
400000
#SCROLL 1.3
100000200200100000400000004000000040000000,
404040
#SCROLL 2
600080,
#SCROLL 1.3
200200000200101020002000200020001000200010001000,
404040404040,
100000000000200200200000400000004000000040000000,
404040
#SCROLL 2
600080,
#SCROLL 1.3
1011221020221120,
404040101212,
#MEASURE 1/4
#GOGOEND
7,
#SCROLL 1
0,
,
,
,
,
,
,
,
,
,
,
,
,
,
,
,
,
,
,
,
,
,
08,
#MEASURE 4/4
200000200100000200100000101000101000200200200200,
100000000000200000200000200000000000100000000000100000000000200020000200200200000000000000000000,
#GOGOSTART
1021201210102122,
1011201212102022,
1021201210102122,
1011201212102022,
1021201210102122,
1011201212102022,
1021201210102122,
1011201212102022,
1021201210102122,
1011201212102022,
1021201210102122,
1011201212102022,
1021201210102122,
1011201212102022,
1021201210102122,
1011201212102022,
#GOGOEND
1000101020010010,
01000000,
1000101020010010,
01002022,
1000101020010010,
01002022,
1010102020020010,
01002021,
1110201020020010,
01000000,
1020202010010020,
02201020,
1002201020020010,
0010000022221111,
1010201020020020,
02012220,
0000202020020020,
02000000,
#END
COURSE:Oni
LEVEL:8
BALLOON:3,2,1,10
SCOREINIT:
SCOREDIFF:
NOTESDESIGNER3:Colin
#START
#MEASURE 1/4
#SCROLL 5
3,
#SCROLL 4.83333
0,
#SCROLL 4.66667
0,
#SCROLL 4.5
0,
#SCROLL 4.33333
0,
#SCROLL 4.16667
0,
#SCROLL 4
0,
#SCROLL 3.83333
0,
#SCROLL 3.66667
0,
#SCROLL 3.5
0,
#SCROLL 3.33333
0,
#SCROLL 3.16667
0,
#SCROLL 3
0,
#SCROLL 2.83333
0,
#SCROLL 2.66667
0,
#SCROLL 2.5
0,
#SCROLL 2.33333
0,
#SCROLL 2.16667
0,
#SCROLL 2
0,
#SCROLL 1.83333
0,
#SCROLL 1.66667
0,
#SCROLL 1.5
0,
#SCROLL 1.33333
0,
#SCROLL 1.16667
0,
#MEASURE 4/4
#SCROLL 1
2210212122102122,
1022121020002222,
#GOGOSTART
1011201210102102,
1010201212102022,
1011201210102102,
1210200212102022,
1011201212102102,
1011201212102022,
1011201210102102,
1010212212102211,
1011201210102102,
1010201212102022,
1011201210102102,
1210200212102022,
1011201212102102,
1011201212102022,
1011201210102102,
1010212212102210,
#GOGOEND
3333,
3333,
3333,
3333,
33333333,
33333333,
60000008,
7008700870083000,
#GOGOSTART
1010212030303000,
33303330,
1010212030303000,
33303330,
1010202230303000,
33303330,
1010212030303000,
33307000,
800200303030,
300030003000600000000800,
100100000100200020002000100200000200100010001000,
303030303030,
100100200200100000200000300000003000000030000000,
300030003000600000000800,
1011200010221210,
303030303030,
#MEASURE 24/4
#GOGOEND
300000,
#MEASURE 4/4
2002002011112212,
1011221011221000,
#GOGOSTART
1211202011221022,
1201212222102022,
1201212021201022,
1201212212102022,
1211202011221022,
1201212222102022,
1201212021201022,
1201212212102022,
1211202011221022,
1201212222102022,
1201212021201022,
1210121012102022,
1211202011221022,
1201212222122222,
1021212021201022,
1201212212102022,
#GOGOEND
1000101020010010,
01000000,
1000101020010010,
01002022,
1000101020010010,
01002022,
1010102020020010,
01002021,
1110201020020010,
01000000,
1020202010010020,
02201020,
1002201020020010,
0010000022221111,
1010201020020020,
02012220,
0000202020020020,
02000000,
#END
COURSE:Hard
LEVEL:6
BALLOON:3,2,1
SCOREINIT:
SCOREDIFF:
NOTESDESIGNER2:Colin & Komi
#START
#MEASURE 32/4
30000000,
#MEASURE 4/4
#GOGOSTART
11201111,
21201122,
10210120,
11210120,
1010200010001011,
11201122,
10210120,
11221122,
11201111,
21201122,
10210120,
11210120,
1010200010001011,
11201122,
10210120,
1010201110201010,
#GOGOEND
3333,
3333,
3333,
3333,
33333333,
33333333,
60000008,
78787830,
#GOGOSTART
10202220,
22202220,
1022200020202000,
22201220,
1010222020202000,
2020200010202220,
11202220,
2020200010202220,
100200202020,
202020600080,
1100202010002020,
202020202020,
100200202020,
202020600080,
1022200010222000,
202020101010,
#MEASURE 32/4
#GOGOEND
10000000,
#MEASURE 4/4
#GOGOSTART
1011101020020010,
0010000110102000,
1011102020020020,
02121020,
1011101020020010,
0010000110102010,
1020201010010020,
02011222,
1110201000201010,
1110201000201010,
1110201000201010,
1110101011101010,
2001102000201000,
2020102011101020,
1010201010010020,
0020002220102000,
#GOGOEND
1000101020010010,
01000000,
1000101020010010,
01002022,
1000101020010010,
01002022,
1010102020020010,
01002021,
1110201020020010,
01000000,
1020202010010020,
02201020,
1002201020020010,
01005000,
8010201020020020,
02012220,
0000202020020020,
02000000,
#END
COURSE:Normal
LEVEL:4
SCOREINIT:
SCOREDIFF:
NOTESDESIGNER1:Colin & Komi
#START
#MEASURE 32/4
30000000,
#MEASURE 4/4
#GOGOSTART
10201110,
10201110,
1010,
1010,
10201110,
10201110,
1010,
20020020,
10201110,
10201110,
1212,
1212,
10201110,
10201110,
1212,
10101011,
#GOGOEND
3030,
3030,
3030,
3030,
3333,
3333,
6,
0008,
#GOGOSTART
20001110,
11101010,
20001110,
11101010,
20001110,
11101010,
20001110,
11102000,
2010,
10001110,
2010,
1010,
1210,
10001110,
2020,
1011,
#MEASURE 32/4
#GOGOEND
20000000,
#MEASURE 4/4
#GOGOSTART
10201110,
10101110,
10201110,
10101110,
10201110,
10101110,
10201110,
2222,
20111010,
20111010,
20111010,
1111,
2101,
20102220,
1212,
10102220,
#GOGOEND
2,
2220,
2020,
2,
2020,
2,
2020,
2,
2220,
2020,
2220,
2020,
2020,
2,
2020,
2,
00222002,
02000000,
#END
COURSE:Easy
LEVEL:2
SCOREINIT:
SCOREDIFF:
NOTESDESIGNER0:Colin
#START
#MEASURE 32/4
30000000,
#MEASURE 4/4
#GOGOSTART
1010,
1,
1010,
1,
1010,
1,
1010,
2,
1010,
1,
1010,
1,
1010,
1,
1010,
1,
#GOGOEND
3030,
3030,
3030,
3030,
3030,
3030,
6,
0008,
#GOGOSTART
1,
1,
1,
,
1,
1,
1,
,
2020,
2,
2020,
2,
2020,
2020,
2020,
2,
#MEASURE 32/4
#GOGOEND
20000000,
#MEASURE 4/4
#GOGOSTART
1010,
1,
1010,
1,
1010,
1,
1010,
2,
1010,
1,
1010,
1,
1010,
1,
1010,
1,
#GOGOEND
2,
2020,
2,
2,
2020,
2,
2020,
2,
2020,
2020,
0020,
2020,
2,
2,
2020,
2,
,
02000000,
#END