Files
2025-06-11 19:53:16 -04:00

800 lines
7.8 KiB
Plaintext

TITLE:Phoenix
SUBTITLE:--Camellia / DanceDanceRevolution A3
TITLEJA:鳳
SUBTITLEJA:かめりあ 「DanceDanceRevolution A3」より
PREIMAGE:Phoenix.jpg
WAVE:Phoenix.ogg
BPM:228
BGMOVIE:Phoenix.mp4
OFFSET:-2.104
DEMOSTART:98.9461
MAKER:Colin
COURSE:Easy
LEVEL:5
BALLOON:16,27
SCOREINIT:
SCOREDIFF:
NOTESDESIGNER0:Colin
#START
#MEASURE 8/4
00,
#MEASURE 4/4
2,
2,
2,
2,
5,
,
8,
,
,
,
#GOGOSTART
1010,
1110,
1010,
1110,
1010,
111
#GOGOEND
0,
#GOGOSTART
1010,
1010,
1010,
1110,
#GOGOEND
0
#GOGOSTART
200,
2020,
2,
20002
#GOGOEND
000,
#GOGOSTART
2020,
2220,
2020,
2220,
#GOGOEND
10000100,
#MEASURE 5/4
0010000100,
05000,
#MEASURE 4/4
0,
8,
2,
2020,
2,
2,
2,
2020,
,
#GOGOSTART
1010,
1110,
1010,
1110,
1010,
1110,
2020,
2220,
2022,
2010,
#GOGOEND
1
#GOGOSTART
200,
2220,
2022,
2,
2220,
2222,
2020,
2020,
10000100,
#MEASURE 5/4
0010000100,
0
#GOGOEND
1000,
#MEASURE 4/4
0,
2,
2,
2,
2,
2020,
2,
2,
2,
1,
1,
1,
1,
2,
2,
2020,
2,
7,
,
,
,
8,
1,
,
,
2020,
2,
2,
#GOGOSTART
1010,
1110,
2020,
2220,
1010,
1110,
1020,
10
#GOGOEND
00,
#GOGOSTART
2020,
2220,
2020,
2020200
#GOGOEND
0,
0
#GOGOSTART
101,
0111,
1010,
1
#GOGOEND
0000000,
#GOGOSTART
40040040,
0444,
04000040,
00400400,
#GOGOEND
0,
,
0
#GOGOSTART
700,
0000000000000000000000000000000000000000000008
#GOGOEND
00,
#END
COURSE:Normal
LEVEL:7
BALLOON:16,27
SCOREINIT:
SCOREDIFF:
NOTESDESIGNER1:Colin
#START
#MEASURE 8/4
00,
20002020,
20002020,
50,
80002020,
20002020,
#GOGOSTART
1000100010101110,
1010100010101110,
10001011101010
#GOGOEND
00,
#GOGOSTART
1011101010001000,
1000101110101000,
#GOGOEND
0
#GOGOSTART
2222020,
2000222220002
#GOGOEND
000,
#GOGOSTART
2000200020202022,
20222222,
#GOGOEND
1011110010100001,
#MEASURE 5/4
01500,
#MEASURE 4/4
0,
0801,
0201,
0222,
0202,
0202,
20200202,
22202020,
2,
0
#GOGOSTART
111,
00101110,
1111,
00101110,
1101,
11101010,
00202220,
2222,
00202220,
2201,
2
#GOGOEND
1
#GOGOSTART
20,
20202022,
2202,
2222,
0222,
22202020,
2202,
22202020,
20101111,
#MEASURE 5/4
1010101011,
0110
#GOGOEND
100000,
#MEASURE 4/4
0202,
0200,
0202,
0200,
0202,
0202,
2202,
0202,
0200,
0101,
1101,
0100,
0101,
0222,
00202220,
0222,
00202002,
0700,
,
,
,
0800,
0101,
0100,
0101,
11200220,
22200020,
0200,
00
#GOGOSTART
101110,
1111,
00220220,
2222,
00101110,
1111,
00101120,
110
#GOGOEND
0,
0
#GOGOSTART
222,
22202020,
00202220,
2222,
0
#GOGOEND
000
#GOGOSTART
1110,
10001110,
1101,
101
#GOGOEND
00010,
00
#GOGOSTART
400400,
4044,
40040000,
40004004,
0
#GOGOEND
000,
,
00
#GOGOSTART
70,
,
0000000008
#GOGOEND
00000000000000000000000000000000000000,
#END
COURSE:Hard
LEVEL:7
BALLOON:84,27
SCOREINIT:
SCOREDIFF:
NOTESDESIGNER2:Colin
#START
#MEASURE 8/4
00,
#MEASURE 4/4
02222020,
2022200020000000,
00222020,
2022200020000000,
1010111010101110,
1010111010101110,
1,
2,
1111,
1,
#GOGOSTART
12011112,
01120111,
2010101110101000,
22221120,
11201112,
011201
#GOGOEND
20,
#GOGOSTART
11111111,
1010201020002220,
12111012,
0011102000101000,
#GOGOEND
000
#GOGOSTART
101010100,
202202200000,
12011201,
12011
#GOGOEND
200,
#GOGOSTART
20120120,
11012020,
20210120,
21012020,
#MEASURE 5/4
#GOGOEND
30000,
,
#MEASURE 4/4
101100101100,
101100101100,
7,
,
,
,
,
,
,
8,
#GOGOSTART
11211210,
2010002220202010,
22111222,
21201012,
21122020,
11212011,
21122222,
11211122,
21221120,
2222,
#GOGOEND
00
#GOGOSTART
330333,
03033333,
03030303,
0300303000300030,
03033033,
03030303,
0300303000003030,
3212,
#MEASURE 5/4
12121,
21212,
#MEASURE 4/4
#GOGOEND
1,
2,
5,
0080,
5008,
5008,
5,
0008,
5,
8,
1000100010002222,
2010,
1020001001001000,
20101200,
2000200020002222,
2010,
22001111,
20100120,
5008,
5008,
5008,
5,
8,
11002121,
00212121,
2222,
1120,
2222,
2,
#GOGOSTART
21021011,
20121211,
10120211,
11210222,
20110122,
00122011,
10210120,
1200
#GOGOEND
0000,
#GOGOSTART
11212020,
10120120,
10102011,
1202020
#GOGOEND
2,
00
#GOGOSTART
110121,
20112010,
2010222010102000,
10
#GOGOEND
20000000002222,
#GOGOSTART
21021021,
20102021,
02121012,
10120122,
#GOGOEND
0,
,
0
#GOGOSTART
700,
0000000000000000000000000000000000000000000008
#GOGOEND
00,
#END
COURSE:Oni
LEVEL:10
SCOREINIT:
SCOREDIFF:
NOTESDESIGNER3:Colin
#START
#MEASURE 8/4
00,
#MEASURE 4/4
100000200000200000101010200000100000200200200200,
1111101020001010,
2211201020112011,
2222111022221000,
#SCROLL 1
1
#SCROLL 1.03125
1
#SCROLL 1.0625
1
#SCROLL 1.09375
1
#SCROLL 1.125
1
#SCROLL 1.15625
1
#SCROLL 1.1875
1
#SCROLL 1.21875
1
#SCROLL 1.25
1
#SCROLL 1.28125
1
#SCROLL 1.3125
1
#SCROLL 1.34375
1
#SCROLL 1.375
1
#SCROLL 1.40625
1
#SCROLL 1.4375
1
#SCROLL 1.46875
1,
#SCROLL 1.5
1
#SCROLL 1.53125
1
#SCROLL 1.5625
1
#SCROLL 1.59375
1
#SCROLL 1.625
1
#SCROLL 1.65625
1
#SCROLL 1.6875
1
#SCROLL 1.71875
1
#SCROLL 1.75
1
#SCROLL 1.78125
1
#SCROLL 1.8125
1
#SCROLL 1.84375
1
#SCROLL 1.875
1
#SCROLL 1.90625
1
#SCROLL 1.9375
1
#SCROLL 1.96875
1,
#SCROLL 2
1
#SCROLL 1
000201010020202,
0010000010201120,
1022112010221120,
1020122210002222,
#GOGOSTART
1020101110102222,
100000200000100000200200100000100100100100101010,
1020102210221111,
200100100100202020200200100100202020200100100100,
1020101210201102,
111111211010
#GOGOEND
1000,
#GOGOSTART
2112121212121212,
1111222211112222,
1020101210101120,
100100100100100000200000100000100000100000202020,
#GOGOEND
0000
#GOGOSTART
401201201200,
2102110110212022,
1111201111212011,
1121201111
#GOGOEND
202222,
#GOGOSTART
1111201111201111,
2022111020102222,
1111201110102220,
1022101121112222,
#MEASURE 5/4
#GOGOEND
1112211212,
1122221122,
#MEASURE 4/4
111111111111,
111111111111111111111111,
122111221211,
211211111222,
111222211211,
222112111222,
111222211211,
211211111222,
222111211211,
222121211222,
#GOGOSTART
1022101010221111,
2022111120102010,
2121201011221020,
200100202020101010101010,
2020101022221111,
1011201020201111,
2111202120202010,
2211211111112020,
200000100000200100100100200100100100200020002000,
111211211222,
#GOGOEND
00
#GOGOSTART
430403,
0030003030112030,
03030303,
0400403000400030,
0030003030112030,
03030303,
2202101010111122,
2011222210201020,
#MEASURE 5/4
22112012012011201120,
10211121112211111111,
#MEASURE 4/4
#GOGOEND
100000100100202020202020,
100020000000100000000200,
10001011,
000100100100200000202020,
1000201000201111,
200000100000200200200200100000200000100010001000,
100000200100000200101010,
200100000200100200202020,
1000201000201011,
2010202210201120,
300100200122,
2000201120201010,
1020102222122121,
202020100000300400000300,
400000000000200000100100200000100000200020002000,
2022101120102222,
100000200000100000200200100010001000100010001000,
20304303,
4022200010001010,
2220111110001020,
1000222222222222,
2222222222222222,
1111211121112222,
10002121,
0000201020102222,
101010101010200000100000200000100000200200200200,
1020102010002222,
101010101010100100100100200000100100200200200200,
10221140,
#GOGOSTART
2222112222111111,
2111212211112222,
1111222211221222,
200100100100200100100100200100202020200020202020,
100100200200100200200200100100100100200100202020,
100100100200100100202020200200200200100200100200,
1021102011201222,
10102222
#GOGOEND
00002222,
#GOGOSTART
1020112211202222,
1111202210221111,
2011201022112011,
20201120112011
#GOGOEND
20,
0000
#GOGOSTART
122210201122,
1111222211221020,
1122112111112111,
11
#GOGOEND
20200020002220,
#GOGOSTART
33033034,
40304033,
04343034,
30340343,
#GOGOEND
10222010,
1000111122222222,
000000
#GOGOSTART
#SCROLL 1
1
#SCROLL 1.08248
1
#SCROLL 1.16496
1
#SCROLL 1.24743
1
#SCROLL 1.32991
1
#SCROLL 1.41239
1
#SCROLL 1.49487
1
#SCROLL 1.57734
1
#SCROLL 1.65982
1
#SCROLL 1.7423
1
#SCROLL 1.82478
1
#SCROLL 1.90725
1
#SCROLL 1.98973
1
#SCROLL 2.07221
1
#SCROLL 2.15469
1
#SCROLL 2.23716
1
#SCROLL 2.31964
1
#SCROLL 2.40212
1,
#SCROLL 2.4846
10
#SCROLL 2.56707
10
#SCROLL 2.64955
10
#SCROLL 2.73203
10
#SCROLL 2.81451
10
#SCROLL 2.89698
10
#SCROLL 2.97946
10
#SCROLL 3.06194
10
#SCROLL 3.14442
10
#SCROLL 3.22689
10
#SCROLL 3.30937
10
#SCROLL 3.39185
10
#SCROLL 3.47433
10
#SCROLL 3.5568
10
#SCROLL 3.63928
10
#SCROLL 3.72176
10
#SCROLL 3.80424
10
#SCROLL 3.88671
10
#SCROLL 3.96919
10
#SCROLL 4.05167
10
#SCROLL 4.13415
10
#SCROLL 4.21662
10
#SCROLL 4.2991
10
#GOGOEND
#SCROLL 4.38158
1
#SCROLL 1
0,
#END