Files
2025-06-11 19:53:16 -04:00

399 lines
4.1 KiB
Plaintext

TITLE:Ring
SUBTITLE:--R Sound Design ft. Himawari / CHUNITHM NEW!!!
TITLEJA:Ring
SUBTITLEJA:R Sound Design feat.向日葵 「CHUNITHM NEW!!!」より
PREIMAGE:Ring.png
WAVE:Ring.ogg
BPM:132
OFFSET:-0.211
DEMOSTART:115.438
MAKER:Colin
COURSE:Easy
LEVEL:3
SCOREINIT:
SCOREDIFF:
NOTESDESIGNER0:Colin
#START
#GOGOSTART
1010,
1,
1010,
1,
1010,
1,
1010,
10
#GOGOEND
00,
2,
2,
2,
2,
2,
2,
2,
2,
2020,
2,
1010,
1,
1010,
1,
2020,
2,
#GOGOSTART
1011,
1010,
1011,
1010,
1011,
1010,
1011,
1,
2022,
2020,
2022,
2020,
2022,
2020,
2000200
#GOGOEND
0,
2,
1,
1,
1,
1,
1,
1,
1,
1,
1020,
1,
1020,
1,
1020,
1,
1020,
1,
2,
2020,
2,
2020,
2,
2020,
2,
,
#GOGOSTART
1011,
1010,
1011,
1010,
1011,
1010,
1011,
1,
2022,
2020,
2022,
2020,
2022,
2020,
2000200
#GOGOEND
0,
#END
COURSE:Normal
LEVEL:4
SCOREINIT:
SCOREDIFF:
NOTESDESIGNER1:Colin
#START
#GOGOSTART
1011,
1010,
1011,
1010,
1011,
1010,
1011,
10
#GOGOEND
10,
2022,
2020,
2020,
2,
2022,
2020,
2,
2022,
2022,
2020,
1011,
1010,
1011,
1010,
2222,
2,
#GOGOSTART
10001011,
1011,
10001011,
1010,
10001011,
1011,
1011,
1,
20002022,
2020,
20002022,
2020,
20002022,
2020,
2000200
#GOGOEND
0,
2,
10101110,
1010,
10101110,
1010,
10101110,
1010,
10101110,
1010,
1121,
1020,
10112010,
1020,
10112010,
1020,
10112010,
1,
2220,
20202022,
2020,
2020,
2020,
2222,
2020,
,
#GOGOSTART
10101011,
1011,
10001011,
1011,
10101011,
1011,
10101011,
1,
20202220,
2020,
20202220,
2022,
20222020,
20002022,
2020200
#GOGOEND
2,
#END
COURSE:Hard
LEVEL:5
SCOREINIT:
SCOREDIFF:
NOTESDESIGNER2:Colin
#START
#GOGOSTART
2022000020020000,
1000200010220111,
1022000020020000,
1000200010220111,
1022000020020000,
1000200010220111,
1022000020020000,
10002000
#GOGOEND
10220111,
1000202200000011,
10101111,
0000101100000011,
1002002202020020,
1000101100000011,
10101111,
0000202200000011,
1001010101011010,
1002002020000020,
1001001010002000,
1001001010010010,
5080,
2002002020000000,
2002002050008000,
1001001010010010,
11000000,
#GOGOSTART
30303033,
03330333,
30303033,
3030303000222020,
2010200011101011,
11120111,
2000200110110020,
0010201020222020,
30303033,
03330333,
30303033,
0030303030222020,
2010200011101011,
11120111,
20002001101100
#GOGOEND
20,
,
1000202200000011,
10101111,
0000101100000011,
1002020202020020,
1000101100000011,
10101111,
0000202200000011,
1011020202000000,
1001001010010010,
1001001010010010,
1002,
2002005000008000,
1001001010010010,
1001001010010010,
1001001010010020,
22000000,
2020,
2020,
2020,
2022,
2020,
2020,
2020,
1010111011201010,
#GOGOSTART
30303033,
03330333,
30303033,
3030303030222020,
2010200011101011,
11120111,
2000200110110020,
0010201020222020,
30303033,
03330333,
30333003,
3030303000222020,
2010200011101011,
11120111,
20002001101100
#GOGOEND
20,
#END
COURSE:Oni
LEVEL:8
SCOREINIT:
SCOREDIFF:
NOTESDESIGNER3:Colin
#START
#GOGOSTART
2012012120120122,
2012012020120121,
2012012120120121,
1010120202121021,
2012012120120122,
1012012020120121,
2012012120120122,
10121202
#GOGOEND
10120020,
1012101210120211,
2012112220221022,
1012101210122011,
2022011201121102,
1012101210120112,
2011210210121120,
1012102110121012,
2021020210122102,
1021012011201120,
1021012022212010,
2021012010210120,
1221202011201021,
2021012011212011,
2012012010112010,
1011012011212020,
3030220211201011,
#GOGOSTART
2011201210122011,
2012021120121121,
2011201210122122,
1012121010221021,
2011202120112212,
1011121010212021,
2011210210030030,
0030201210212111,
2011201210122102,
1012021120110121,
1011201210122122,
1012122210221021,
2011210121122012,
1012021210211121,
20112122100300
#GOGOEND
30,
00000110,
1012201110122012,
1012202210122020,
1012201110122020,
1012210210122020,
1012202210120210,
1012202210121020,
1012202210122011,
1012020201212022,
1012012010122010,
1221201012022020,
2221202021012010,
2221202010101111,
2221202021012110,
2221201122112212,
1221202012012010,
3030102212112020,
20202022,
02220222,
20202022,
22220222,
20202022,
02220222,
2000200020020010,
100000100000100100100100101010101010200000100000,
#GOGOSTART
2011201210122011,
2012021120121121,
2011201210122122,
1012121010221021,
2011202120112212,
1011121010212021,
2011210210030030,
0030201210212111,
2011201210122102,
1012221120112102,
1011221210212122,
1012122010212021,
2011210121122012,
1012021210211121,
20112122100300
#GOGOEND
30,
#END