generated from DragonRatTiger/Custom-Charts
348 lines
3.3 KiB
Plaintext
348 lines
3.3 KiB
Plaintext
TITLE:Seimeisen
|
|
TITLEJA:生命線
|
|
SUBTITLEJA:ReoNa 「月姫 -A piece of blue glass moon-」より
|
|
SUBTITLE:--ReoNa / Tsukihime -A piece of blue glass moon-
|
|
PREIMAGE:Seimeisen.jpg
|
|
BPM:170
|
|
WAVE:Seimeisen.ogg
|
|
OFFSET:-0.793
|
|
DEMOSTART:56.028
|
|
MAKER:Colin
|
|
|
|
COURSE:Oni
|
|
LEVEL:8
|
|
BALLOON:
|
|
SCOREINIT:
|
|
SCOREDIFF:
|
|
NOTESDESIGNER3:Colin
|
|
|
|
|
|
#START
|
|
1,
|
|
2000000000000011,
|
|
2,
|
|
0,
|
|
1,
|
|
1000000000000022,
|
|
1000000000000012,
|
|
1,
|
|
1010201020002011,
|
|
2020001210102011,
|
|
2010101020002011,
|
|
2020001210002050,
|
|
0,
|
|
00080015,
|
|
0,
|
|
00080000,
|
|
1021212210121022,
|
|
1111202210221022,
|
|
1022101210221020,
|
|
1111201210221020,
|
|
1002102210201022,
|
|
1111102210201020,
|
|
11111112,
|
|
1211102200000000,
|
|
300000000000100100200100200000202000100100200000,
|
|
300000200100000100200100200000202000100000200000,
|
|
300000200000100000200100200000202000100000200000,
|
|
100000200100000000200100200000202020100000200200,
|
|
1000121120221020,
|
|
3021002210221020,
|
|
3022102120221002,
|
|
3023023000000000,
|
|
1111101111101000,
|
|
1111,
|
|
1111101111101000,
|
|
1000100010001111,
|
|
12121212,
|
|
12121212,
|
|
1211102212221120,
|
|
0000000021112000,
|
|
#GOGOSTART
|
|
1022102011112012,
|
|
1021201110112212,
|
|
1020101210102012,
|
|
1022102210112012,
|
|
1021221210112012,
|
|
1020102210112012,
|
|
1011201210221020,
|
|
1022121120112022,
|
|
1022102011112012,
|
|
1021201110112212,
|
|
1020101210102012,
|
|
1022102210112012,
|
|
1021221210112012,
|
|
1020102210112012,
|
|
1011201210221020,
|
|
1022121120112022,
|
|
1022102011112012,
|
|
1021201110112212,
|
|
#GOGOEND
|
|
1003,
|
|
0000001120000000,
|
|
12112111,
|
|
21112122,
|
|
12112111,
|
|
21112121,
|
|
21112111,
|
|
21112121,
|
|
21112112,
|
|
1002001001001002,
|
|
0001000200010000,
|
|
#END
|
|
|
|
|
|
COURSE:Hard
|
|
LEVEL:6
|
|
BALLOON:
|
|
SCOREINIT:
|
|
SCOREDIFF:
|
|
NOTESDESIGNER2:Colin
|
|
|
|
|
|
#START
|
|
1,
|
|
2,
|
|
2,
|
|
0,
|
|
1,
|
|
1,
|
|
10000001,
|
|
1,
|
|
01212021,
|
|
02011120,
|
|
01112021,
|
|
02011025,
|
|
0,
|
|
00080015,
|
|
0,
|
|
00080000,
|
|
12221012,
|
|
01021210,
|
|
02111212,
|
|
02011215,
|
|
0,
|
|
00080015,
|
|
0,
|
|
0800,
|
|
3,
|
|
3,
|
|
3,
|
|
3,
|
|
3,
|
|
3,
|
|
3000000000000002,
|
|
3023023000000000,
|
|
1111101111101000,
|
|
1111,
|
|
1111101111101000,
|
|
1000100010001111,
|
|
12020202,
|
|
02020202,
|
|
1111102220101020,
|
|
0000000020111000,
|
|
#GOGOSTART
|
|
1020102011112000,
|
|
1020201110102000,
|
|
1020102011112000,
|
|
1020201110102000,
|
|
1020102011112000,
|
|
1020201110102000,
|
|
1020102011112000,
|
|
1020201110102000,
|
|
1020102011112000,
|
|
1020201110102000,
|
|
1020102011112000,
|
|
1020201110102000,
|
|
5,
|
|
00081010,
|
|
5,
|
|
8033,
|
|
6,
|
|
0800,
|
|
#GOGOEND
|
|
1003,
|
|
00012000,
|
|
12112111,
|
|
21112122,
|
|
12112111,
|
|
21112121,
|
|
21112111,
|
|
21112121,
|
|
21112112,
|
|
1002001001001002,
|
|
0001000200010000,
|
|
#END
|
|
|
|
COURSE:Normal
|
|
LEVEL:6
|
|
BALLOON:
|
|
SCOREINIT:
|
|
SCOREDIFF:
|
|
NOTESDESIGNER1:Colin
|
|
|
|
|
|
#START
|
|
1,
|
|
2,
|
|
2,
|
|
0,
|
|
1,
|
|
1,
|
|
10000001,
|
|
1,
|
|
1110,
|
|
1110,
|
|
1110,
|
|
1110,
|
|
1110,
|
|
1110,
|
|
1110,
|
|
1110,
|
|
12101210,
|
|
12101210,
|
|
12101210,
|
|
12101210,
|
|
12101210,
|
|
12101210,
|
|
5,
|
|
0800,
|
|
3,
|
|
3,
|
|
3,
|
|
3,
|
|
3,
|
|
3,
|
|
3,
|
|
3,
|
|
1001001000000000,
|
|
1001001000000000,
|
|
1001001000000000,
|
|
1001001000000000,
|
|
1111,
|
|
1111,
|
|
5,
|
|
8,
|
|
#GOGOSTART
|
|
6,
|
|
00811010,
|
|
5,
|
|
00811111,
|
|
5,
|
|
0822,
|
|
5,
|
|
81011110,
|
|
6,
|
|
00811010,
|
|
5,
|
|
0811,
|
|
5,
|
|
0822,
|
|
5,
|
|
81011110,
|
|
10000001,
|
|
0,
|
|
#GOGOEND
|
|
1,
|
|
02,
|
|
12102110,
|
|
21102120,
|
|
12102110,
|
|
21102120,
|
|
21102110,
|
|
21102120,
|
|
21102110,
|
|
1002001001001002,
|
|
0001000200010000,
|
|
#END
|
|
|
|
|
|
COURSE:Easy
|
|
LEVEL:4
|
|
BALLOON:
|
|
SCOREINIT:
|
|
SCOREDIFF:
|
|
NOTESDESIGNER0:Colin
|
|
|
|
|
|
#START
|
|
1,
|
|
2,
|
|
2,
|
|
0,
|
|
1,
|
|
1,
|
|
1,
|
|
1,
|
|
11,
|
|
11,
|
|
11,
|
|
11,
|
|
11,
|
|
11,
|
|
11,
|
|
1110,
|
|
1111,
|
|
1111,
|
|
1111,
|
|
1111,
|
|
1111,
|
|
1111,
|
|
5,
|
|
0800,
|
|
3,
|
|
3,
|
|
3,
|
|
3,
|
|
3,
|
|
3,
|
|
3,
|
|
3,
|
|
10010000,
|
|
10010000,
|
|
10010000,
|
|
10010000,
|
|
11,
|
|
11,
|
|
5,
|
|
8,
|
|
#GOGOSTART
|
|
6,
|
|
0800,
|
|
5,
|
|
0800,
|
|
5,
|
|
0800,
|
|
5,
|
|
8,
|
|
6,
|
|
0800,
|
|
5,
|
|
0800,
|
|
5,
|
|
0800,
|
|
5,
|
|
8,
|
|
10000001,
|
|
0,
|
|
#GOGOEND
|
|
1,
|
|
02,
|
|
12,
|
|
22,
|
|
12,
|
|
22,
|
|
2101,
|
|
0122,
|
|
2121,
|
|
1002000001001002,
|
|
0001000200010000,
|
|
#END
|
|
|
|
|
|
|
|
|
|
|
|
|
|
|