generated from DragonRatTiger/Custom-Charts
557 lines
5.9 KiB
Plaintext
557 lines
5.9 KiB
Plaintext
TITLE:SuddeИDeath
|
|
SUBTITLE:--xi vs Atsushi Morimori / SOUND VOLTEX EXCEED GEAR
|
|
TITLEJA:SuddeИDeath
|
|
SUBTITLEJA:xi vs モリモリあつし 「SOUND VOLTEX EXCEED GEAR」より
|
|
PREIMAGE:SuddenDeath.png
|
|
BPM:236
|
|
OFFSET:-1.067
|
|
DEMOSTART:68.185
|
|
WAVE:SuddenDeath.ogg
|
|
MAKER:Colin
|
|
|
|
COURSE:Oni
|
|
LEVEL:10
|
|
SCOREINIT:
|
|
SCOREDIFF:
|
|
NOTESDESIGNER3:Colin
|
|
|
|
#START
|
|
2011102000111111,
|
|
20202020202020202020202011111010,
|
|
2011102000221111,
|
|
10101010101010101111101011111010,
|
|
2011102000222222,
|
|
1111102000112222,
|
|
20002000202020202020222220202020,
|
|
1111203000300030,
|
|
0030003020202111,
|
|
2222111111103000,
|
|
6,
|
|
00000008,
|
|
2000101010201120,
|
|
02112200,
|
|
2000111020200020,
|
|
0010201020102210,
|
|
10212121,
|
|
0020101022222222,
|
|
1011202010102010,
|
|
0010101120002000,
|
|
#GOGOSTART
|
|
2000112211112210,
|
|
0022222211112222,
|
|
1001002011102210,
|
|
0022222211112120,
|
|
11111111200010101010101020003000,
|
|
0030003000221111,
|
|
10001010100020001111200010001000,
|
|
000000000000200200200200200000000000100000100000100000000000000040000000000000004000000000000000,
|
|
4000211121112111,
|
|
202000002020000020200000202000200200200200200200,
|
|
1111111111222222,
|
|
1110101020202222,
|
|
2222101020112020,
|
|
2222222222102211,
|
|
1010400011201111,
|
|
20001111200010102020202020202020,
|
|
1020221122221111,
|
|
202000002020000020200200100100100100200200200200,
|
|
1111111111222222,
|
|
1111201020102220,
|
|
100100100100200000100100200000100000200010001000,
|
|
2010111120112011,
|
|
20001010200011112000101020001000,
|
|
200200200200200200200200100010001000100010001000,
|
|
#GOGOEND
|
|
10120120,
|
|
12012222,
|
|
2222222222222222,
|
|
2222222222221111,
|
|
1110201110201110,
|
|
2011101020202020,
|
|
4,
|
|
,
|
|
4,
|
|
2020,
|
|
2,
|
|
2222,
|
|
220000000000000000000000,
|
|
0000000022222222,
|
|
1001001120020022,
|
|
2002002210221020,
|
|
1001002010020022,
|
|
2002002210221111,
|
|
1022112211221222,
|
|
1010101011111111,
|
|
1011221120112011,
|
|
20000000200020201111101020202020,
|
|
#GOGOSTART
|
|
1022222210201022,
|
|
2022222210201010,
|
|
1022111110201022,
|
|
1022222211111111,
|
|
1022112010222222,
|
|
10002020100010001000202011111111,
|
|
1011112011112020,
|
|
10001000202020202020202022222020,
|
|
#GOGOEND
|
|
111111111111,
|
|
200020002000200020002000200200200200200200200200,
|
|
2011102000111111,
|
|
20202020202020202020202011111010,
|
|
2011102000221111,
|
|
10101010101010101111101011111010,
|
|
2011102000222222,
|
|
111111111111,
|
|
2011201022100010,
|
|
00002020101011111010100020202020,
|
|
#GOGOSTART
|
|
1011201000222211,
|
|
1111111120101122,
|
|
1111201111201111,
|
|
22222020100000002000002000002020,
|
|
#GOGOEND
|
|
1010102000222222,
|
|
1011102022222222,
|
|
#GOGOSTART
|
|
1111111122221111,
|
|
2022204000400040,
|
|
000000200200200200200200100010001000100000001000,
|
|
#GOGOEND
|
|
1222222212222222,
|
|
1222222212222222,
|
|
10200200,
|
|
20020020,
|
|
#GOGOSTART
|
|
1010221122112222,
|
|
1122202122111111,
|
|
2010112222121022,
|
|
2222222211111111,
|
|
1110221022102210,
|
|
10101010222220101222202010000000,
|
|
1111111122222222,
|
|
1111222222221010,
|
|
1111221022202220,
|
|
2020202022222222,
|
|
1111222222222222,
|
|
2222222211111222,
|
|
2222111122222222,
|
|
1122111122222222,
|
|
1110301011201111,
|
|
2011222211112222,
|
|
1111112211221122,
|
|
11221122112220
|
|
#GOGOEND
|
|
10,
|
|
0300,
|
|
#END
|
|
|
|
COURSE:Hard
|
|
LEVEL:8
|
|
SCOREINIT:
|
|
SCOREDIFF:
|
|
NOTESDESIGNER2:Colin
|
|
|
|
#START
|
|
40340000,
|
|
,
|
|
40340000,
|
|
,
|
|
40340000,
|
|
40340000,
|
|
4444,
|
|
40440404,
|
|
04044450,
|
|
0008,
|
|
1,
|
|
,
|
|
2000001020202220,
|
|
02221200,
|
|
2000002220200020,
|
|
01112020,
|
|
10102012,
|
|
0020002000222020,
|
|
10110111,
|
|
0010001110002000,
|
|
#GOGOSTART
|
|
1000200011102010,
|
|
01201120,
|
|
1002002010002010,
|
|
01201120,
|
|
1000200011102010,
|
|
01010120,
|
|
10210121,
|
|
0010001010020020,
|
|
1222,
|
|
20112012,
|
|
10102011,
|
|
10012222,
|
|
00102011,
|
|
21012120,
|
|
01201201,
|
|
20102220,
|
|
12000210,
|
|
11101110,
|
|
11101120,
|
|
1000222020002000,
|
|
10201120,
|
|
20102220,
|
|
1110200020002000,
|
|
5,
|
|
#GOGOEND
|
|
80120210,
|
|
21021222,
|
|
20120120,
|
|
1011100020001000,
|
|
10120120,
|
|
12012222,
|
|
4,
|
|
,
|
|
4,
|
|
2020,
|
|
2,
|
|
,
|
|
2,
|
|
,
|
|
1001001020020022,
|
|
2002002220002000,
|
|
2002002020020022,
|
|
2002002220002000,
|
|
1212,
|
|
2020202022202020,
|
|
1,
|
|
40334000,
|
|
#GOGOSTART
|
|
1211,
|
|
1022200010002000,
|
|
1000222020001000,
|
|
1000200022202220,
|
|
10201120,
|
|
1020200010102220,
|
|
10210122,
|
|
0010200022202000,
|
|
#GOGOEND
|
|
111111111111,
|
|
2222,
|
|
40340000,
|
|
,
|
|
40340000,
|
|
,
|
|
40340000,
|
|
,
|
|
40444404,
|
|
06000080,
|
|
#GOGOSTART
|
|
40340000,
|
|
,
|
|
40340000,
|
|
,
|
|
#GOGOEND
|
|
20120000,
|
|
20120000,
|
|
#GOGOSTART
|
|
4444,
|
|
40440404,
|
|
05000000,
|
|
#GOGOEND
|
|
8010,
|
|
1010,
|
|
10200200,
|
|
20020020,
|
|
#GOGOSTART
|
|
1010201110102000,
|
|
1010201110102000,
|
|
1010201110102000,
|
|
1010201110102000,
|
|
1010201110102000,
|
|
1010201110102000,
|
|
1010201110102000,
|
|
1010201110102000,
|
|
1010201110102000,
|
|
1010201110102000,
|
|
1110111011101110,
|
|
1110111011101110,
|
|
5,
|
|
,
|
|
8400,
|
|
,
|
|
1110111011101110,
|
|
11101110111011
|
|
#GOGOEND
|
|
10,
|
|
0300,
|
|
#END
|
|
|
|
COURSE:Normal
|
|
LEVEL:7
|
|
BALLOON:15
|
|
SCOREINIT:
|
|
SCOREDIFF:
|
|
NOTESDESIGNER1:Colin
|
|
|
|
#START
|
|
40040000,
|
|
0004,
|
|
40040000,
|
|
0004,
|
|
40040000,
|
|
40040000,
|
|
4444,
|
|
40440404,
|
|
04044470,
|
|
0008,
|
|
1,
|
|
,
|
|
1010,
|
|
1011,
|
|
1010,
|
|
1011,
|
|
1010,
|
|
1011,
|
|
1010,
|
|
1010,
|
|
#GOGOSTART
|
|
2022,
|
|
2020,
|
|
2022,
|
|
2020,
|
|
2022,
|
|
2020,
|
|
1011,
|
|
1010,
|
|
5,
|
|
,
|
|
,
|
|
,
|
|
8111,
|
|
2010,
|
|
2010,
|
|
2022,
|
|
2020,
|
|
1020,
|
|
1020,
|
|
1,
|
|
1011,
|
|
1010,
|
|
1011,
|
|
1010,
|
|
#GOGOEND
|
|
30030000,
|
|
0010,
|
|
30030000,
|
|
1010,
|
|
30030000,
|
|
1010,
|
|
6,
|
|
,
|
|
,
|
|
8020,
|
|
2,
|
|
2,
|
|
2,
|
|
,
|
|
1011,
|
|
1010,
|
|
1011,
|
|
1,
|
|
12201000,
|
|
12201000,
|
|
1110,
|
|
3030,
|
|
#GOGOSTART
|
|
11101000,
|
|
11101000,
|
|
22202000,
|
|
22202000,
|
|
11102000,
|
|
22201000,
|
|
22202022,
|
|
2020,
|
|
#GOGOEND
|
|
5,
|
|
,
|
|
80040000,
|
|
0004,
|
|
40040000,
|
|
0004,
|
|
40040000,
|
|
6008,
|
|
40040404,
|
|
,
|
|
#GOGOSTART
|
|
40040000,
|
|
,
|
|
40040000,
|
|
4,
|
|
#GOGOEND
|
|
20020000,
|
|
1010,
|
|
#GOGOSTART
|
|
2222,
|
|
2,
|
|
,
|
|
#GOGOEND
|
|
3030,
|
|
3030,
|
|
10200200,
|
|
20020020,
|
|
#GOGOSTART
|
|
10111010,
|
|
10111010,
|
|
10111010,
|
|
10111010,
|
|
10111010,
|
|
10111010,
|
|
10111010,
|
|
10111010,
|
|
10111010,
|
|
10111010,
|
|
10111010,
|
|
10111010,
|
|
10111010,
|
|
11111111,
|
|
1600,
|
|
,
|
|
,
|
|
0000000
|
|
#GOGOEND
|
|
0,
|
|
8300,
|
|
#END
|
|
|
|
COURSE:Easy
|
|
LEVEL:5
|
|
BALLOON:10
|
|
SCOREINIT:
|
|
SCOREDIFF:
|
|
NOTESDESIGNER0:Colin
|
|
|
|
#START
|
|
40040000,
|
|
,
|
|
40040000,
|
|
,
|
|
40040000,
|
|
,
|
|
4040,
|
|
6,
|
|
0087,
|
|
0008,
|
|
1,
|
|
,
|
|
1,
|
|
1,
|
|
1,
|
|
1,
|
|
1,
|
|
1,
|
|
1,
|
|
1,
|
|
#GOGOSTART
|
|
2020,
|
|
2,
|
|
2020,
|
|
2,
|
|
2020,
|
|
2,
|
|
1010,
|
|
1,
|
|
5,
|
|
,
|
|
,
|
|
,
|
|
8100,
|
|
2,
|
|
2,
|
|
2020,
|
|
2,
|
|
1,
|
|
1,
|
|
1,
|
|
1,
|
|
1,
|
|
1010,
|
|
1,
|
|
#GOGOEND
|
|
30030000,
|
|
,
|
|
30030000,
|
|
,
|
|
30030000,
|
|
,
|
|
6,
|
|
,
|
|
,
|
|
8020,
|
|
2,
|
|
,
|
|
2,
|
|
,
|
|
1010,
|
|
1,
|
|
1010,
|
|
1,
|
|
1210,
|
|
1210,
|
|
1,
|
|
3030,
|
|
#GOGOSTART
|
|
1110,
|
|
1110,
|
|
2220,
|
|
2220,
|
|
1120,
|
|
2210,
|
|
20202022,
|
|
2020,
|
|
#GOGOEND
|
|
5,
|
|
,
|
|
8,
|
|
,
|
|
40040000,
|
|
,
|
|
40040000,
|
|
,
|
|
40040404,
|
|
,
|
|
#GOGOSTART
|
|
40040000,
|
|
,
|
|
40040000,
|
|
,
|
|
#GOGOEND
|
|
20020000,
|
|
1010,
|
|
#GOGOSTART
|
|
2222,
|
|
2,
|
|
,
|
|
#GOGOEND
|
|
3030,
|
|
3030,
|
|
10200200,
|
|
20020020,
|
|
#GOGOSTART
|
|
1111,
|
|
1111,
|
|
1111,
|
|
1111,
|
|
1111,
|
|
1111,
|
|
1111,
|
|
1111,
|
|
1111,
|
|
1111,
|
|
1111,
|
|
1111,
|
|
1111,
|
|
1111,
|
|
1600,
|
|
,
|
|
,
|
|
0000000
|
|
#GOGOEND
|
|
0,
|
|
8300,
|
|
#END
|