generated from DragonRatTiger/Custom-Charts
341 lines
2.9 KiB
Plaintext
341 lines
2.9 KiB
Plaintext
// PeepoDrumKit 2023/10/28
|
|
TITLE:Dance Mode
|
|
TITLEJA:ダンス・モード
|
|
SUBTITLE:--Joff Bush / Bluey
|
|
SUBTITLEJA:Joff Bush 「ブルーイ」より
|
|
BPM:136
|
|
WAVE:Dance Mode.ogg
|
|
PREIMAGE:Dance Mode.jpg
|
|
OFFSET:-0.045
|
|
DEMOSTART:67.103
|
|
MAKER:Colin
|
|
SEVOL:52
|
|
|
|
COURSE:Oni
|
|
LEVEL:8
|
|
SCOREINIT:
|
|
SCOREDIFF:
|
|
NOTESDESIGNER3:Colin
|
|
|
|
#START
|
|
1001001020120020,
|
|
1001002010211020,
|
|
1001001020120020,
|
|
1001002010210020,
|
|
1001001020120020,
|
|
1022102210221022,
|
|
1022102020120120,
|
|
1212111120000000,
|
|
#GOGOSTART
|
|
1001201020220220,
|
|
1001201010220120,
|
|
1,
|
|
,
|
|
,
|
|
,
|
|
,
|
|
,
|
|
,
|
|
000000000000000
|
|
#GOGOEND
|
|
0,
|
|
#GOGOSTART
|
|
0,
|
|
,
|
|
,
|
|
,
|
|
,
|
|
,
|
|
,
|
|
,
|
|
,
|
|
,
|
|
#GOGOEND
|
|
0,
|
|
,
|
|
,
|
|
,
|
|
,
|
|
,
|
|
,
|
|
,
|
|
,
|
|
,
|
|
#GOGOSTART
|
|
0,
|
|
,
|
|
,
|
|
,
|
|
,
|
|
,
|
|
,
|
|
,
|
|
,
|
|
,
|
|
,
|
|
,
|
|
,
|
|
,
|
|
,
|
|
,
|
|
,
|
|
,
|
|
,
|
|
,
|
|
,
|
|
,
|
|
,
|
|
,
|
|
,
|
|
#GOGOEND
|
|
0,
|
|
,
|
|
,
|
|
,
|
|
#END
|
|
|
|
COURSE:Hard
|
|
LEVEL:6
|
|
BALLOON:25
|
|
SCOREINIT:
|
|
SCOREDIFF:
|
|
NOTESDESIGNER2:Colin
|
|
|
|
#START
|
|
11101000,
|
|
11101000,
|
|
11101000,
|
|
11101010,
|
|
11101000,
|
|
11101000,
|
|
1110,
|
|
1111111110000000,
|
|
#GOGOSTART
|
|
1000111020001000,
|
|
1000111020101010,
|
|
1010111020001010,
|
|
1011100010201020,
|
|
1011101020001020,
|
|
1020111010202020,
|
|
1011101010001010,
|
|
1000111020002011,
|
|
1000201110002011,
|
|
100020111000101
|
|
#GOGOEND
|
|
0,
|
|
#GOGOSTART
|
|
1000111020102000,
|
|
12112012,
|
|
1011101020001010,
|
|
1000101020111010,
|
|
1000111020001010,
|
|
1000111020002010,
|
|
1000111020001000,
|
|
1110101020102010,
|
|
1110101010101010,
|
|
11111110,
|
|
#GOGOEND
|
|
2222,
|
|
2222,
|
|
2222,
|
|
2222,
|
|
2222,
|
|
2222,
|
|
2222,
|
|
2222,
|
|
2222,
|
|
2222,
|
|
#GOGOSTART
|
|
1000111020101010,
|
|
1000111020201020,
|
|
1000111020101000,
|
|
1110111010202020,
|
|
1000111020101010,
|
|
1000111010201020,
|
|
1000111010201020,
|
|
11112121,
|
|
11211121,
|
|
11221000,
|
|
1000111020101020,
|
|
1000101020111020,
|
|
1000111020102010,
|
|
1011101020101020,
|
|
10112122,
|
|
1010101020102011,
|
|
11112121,
|
|
11112121,
|
|
1010111020001020,
|
|
10112112,
|
|
1000111020001010,
|
|
1000111020101020,
|
|
1000111020102000,
|
|
1010111020001000,
|
|
1000111020101010,
|
|
#GOGOEND
|
|
6,
|
|
0800,
|
|
0000070000000000,
|
|
0080,
|
|
#END
|
|
|
|
COURSE:Normal
|
|
LEVEL:5
|
|
BALLOON:20
|
|
SCOREINIT:
|
|
SCOREDIFF:
|
|
NOTESDESIGNER1:Colin
|
|
|
|
#START
|
|
1110,
|
|
1110,
|
|
1110,
|
|
1110,
|
|
1110,
|
|
1110,
|
|
1110,
|
|
11100000,
|
|
#GOGOSTART
|
|
10112000,
|
|
10112000,
|
|
11112000,
|
|
11101000,
|
|
10112000,
|
|
10111000,
|
|
10111000,
|
|
10112021,
|
|
10211021,
|
|
100020101000100
|
|
#GOGOEND
|
|
0,
|
|
#GOGOSTART
|
|
10112000,
|
|
10112000,
|
|
10112000,
|
|
10112000,
|
|
10112000,
|
|
10112020,
|
|
10112000,
|
|
11102020,
|
|
11101011,
|
|
10101110,
|
|
#GOGOEND
|
|
2020,
|
|
2020,
|
|
2020,
|
|
2020,
|
|
2020,
|
|
2020,
|
|
2020,
|
|
2020,
|
|
2020,
|
|
2020,
|
|
#GOGOSTART
|
|
10112000,
|
|
10112000,
|
|
10112000,
|
|
11111000,
|
|
10112000,
|
|
10111000,
|
|
10111000,
|
|
11102020,
|
|
11201120,
|
|
11200000,
|
|
10112000,
|
|
10112000,
|
|
10112000,
|
|
10112000,
|
|
10112000,
|
|
11102020,
|
|
11102020,
|
|
11102020,
|
|
11102000,
|
|
10112000,
|
|
10112000,
|
|
10112000,
|
|
10112000,
|
|
10112000,
|
|
10112000,
|
|
#GOGOEND
|
|
6,
|
|
0800,
|
|
0000070000000000,
|
|
0080,
|
|
#END
|
|
|
|
COURSE:Easy
|
|
LEVEL:4
|
|
BALLOON:15
|
|
SCOREINIT:
|
|
SCOREDIFF:
|
|
NOTESDESIGNER0:Colin
|
|
|
|
#START
|
|
1,
|
|
1,
|
|
1,
|
|
1,
|
|
1,
|
|
1,
|
|
1,
|
|
1100,
|
|
1120,
|
|
1120,
|
|
1120,
|
|
1110,
|
|
1120,
|
|
1110,
|
|
1110,
|
|
1122,
|
|
1212,
|
|
1211,
|
|
1120,
|
|
1120,
|
|
1120,
|
|
1120,
|
|
1120,
|
|
1122,
|
|
1120,
|
|
1122,
|
|
1111,
|
|
1111,
|
|
2,
|
|
2,
|
|
2,
|
|
2,
|
|
2,
|
|
2,
|
|
2,
|
|
2,
|
|
2020,
|
|
2020,
|
|
1120,
|
|
1120,
|
|
1120,
|
|
1110,
|
|
1120,
|
|
1110,
|
|
1110,
|
|
1122,
|
|
1212,
|
|
1200,
|
|
1120,
|
|
1120,
|
|
1120,
|
|
1120,
|
|
1120,
|
|
1122,
|
|
1122,
|
|
1122,
|
|
1120,
|
|
1120,
|
|
1120,
|
|
1120,
|
|
1120,
|
|
1120,
|
|
1120,
|
|
5,
|
|
0800,
|
|
0000070000000000,
|
|
0080,
|
|
#END
|