Files
Colins_Custom_Charts/01 Pop/About Damn Time/About Damn Time.tja
T
2025-06-11 19:53:16 -04:00

277 lines
3.4 KiB
Plaintext

TITLE:About Damn Time
SUBTITLE:--Lizzo
GENRE:J-POP
WAVE:About Damn Time.ogg
BPM:109
OFFSET:-2.200
DEMOSTART:46.235
MAKER:Makotora / Colin
PREIMAGE:About Damn Time.png
COURSE:Edit
LEVEL:8
SCOREINIT:500
SCOREDIFF:270
#START
1020121210012012,
1210201122112021,
1020121210012012,
1210222230303000,
1001201010002010,
1000110120021020,
1002102010012010,
1001221030303021,
1111211120212012,
1111211121201020,
1111211120212011,
2021201030303000,
1120120210212012,
1002102210112020,
1011210210012020,
1021210122112012,
1001210210012012,
1002102010212020,
12121212,
1020102230303022,
#GOGOSTART
1011201201221120,
1221201211112012,
1011201210121022,
1012102210221122,
1010200210121120,
1020102230303020,
1001201210120222,
1120102110121222,
1021201210120222,
1020101020121122,
1021212010212020,
#GOGOEND
10002020100011114000300030002010,
#GOGOSTART
1021201020121022,
1011201210221212,
1020102010120211,
1120102102104022,
1020102010212122,
1022102120112210,
2222,
2010210230303000,
#GOGOEND
#END
COURSE:Oni
LEVEL:8
SCOREINIT:500
SCOREDIFF:240
BALLOON:20
#START
1022120210001022,
1022120210001022,
1022120210001022,
1022120210303000,
1202102010221020,
1202102011201020,
1202102010211020,
1202102210303002,
1122112210201002,
1221122110201002,
1122112210201022,
1020102210303000,
1020120212021021,
0102020101020020,
1020120212021021,
0102020101020022,
1020120212021021,
0102020101020200,
7,
8000002220204040,
#GOGOSTART
3022120210221020,
1120102212201022,
1021120210211020,
1220102112201021,
1102102011021020,
1102102210303000,
3022120210221020,
1120102212201022,
1021120210211020,
1220102112201021,
1102102011021020,
#GOGOEND
1022211110303000,
#GOGOSTART
3022102210220122,
1022102110210120,
1021102110220122,
1021102210210120,
3022102210220122,
1022102110210120,
3202,
3021121110303000,
#GOGOEND
#END
COURSE:Hard
LEVEL:5
SCOREINIT:500
SCOREDIFF:285
BALLOON:20
#START
12121010,
1020102010001011,
12121010,
12123330,
10121012,
1000102010111000,
10121012,
10123330,
1110111010100000,
2220222020200000,
1110111010100022,
22023330,
1020100010201001,
0102020101020020,
1020100010201001,
0102020101020020,
1020100010201001,
0102020101020200,
7,
8000002220204040,
#GOGOSTART
3020100010201011,
1020100010201011,
1020100010201011,
1020100010201011,
1100102011001020,
1100100030303000,
3020100010201011,
1020100010201011,
1020100010201011,
1020100010201011,
1100102011001020,
#GOGOEND
1100100030303000,
#GOGOSTART
3020102010220020,
1020102200001020,
1020102010220020,
1020102200001020,
3020102010220020,
1020102200001020,
3202,
3040040030303000,
#GOGOEND
#END
COURSE:Normal
LEVEL:4
SCOREINIT:500
SCOREDIFF:605
BALLOON:10
#START
1112,
1112,
1112,
10103330,
1110,
1110,
1110,
1110,
10101200,
10101200,
10101200,
22023330,
1500,
0,
08001000,
1111,
1508,
1211,
7,
80002222,
#GOGOSTART
10112010,
10112010,
1000101020001002,
0020202020005008,
1000200020005008,
10003330,
10112010,
10112010,
1000101020001002,
0020202020005008,
1000200020005008,
#GOGOEND
10003330,
#GOGOSTART
1212,
1211,
1212,
1000200010005008,
1212,
1212,
1222,
20003330,
#GOGOEND
#END
COURSE:Easy
LEVEL:2
SCOREINIT:500
SCOREDIFF:1125
BALLOON:10
#START
1002,
1002,
1002,
10003330,
11,
1100,
11,
1,
11,
12,
11,
20003330,
1500,
0,
08001000,
11,
1508,
1201,
7,
82,
#GOGOSTART
1120,
1120,
1120,
0000000000005008,
1000200020005008,
10003330,
1120,
1120,
1120,
0000000000005008,
1000200020005008,
#GOGOEND
10003330,
#GOGOSTART
11,
1210,
11,
1000200010005008,
11,
1210,
12,
20003330,
#GOGOEND
#END