Files
Colins_Custom_Charts/01 Pop/Adieu Salauds/Adieu Salauds.tja
T
2025-12-20 15:48:32 -05:00

453 lines
5.0 KiB
Plaintext

TITLE:Adieu, Salauds
SUBTITLE:--FLG4 feat. Okayu Nekomata
TITLEJA:アデュー、サロー
SUBTITLEJA:FLG4 feat. 猫又おかゆ
PREIMAGE:Adieu Salauds.jpg
BGMOVIE:Adieu Salauds.mp4
WAVE:Adieu Salauds.ogg
BPM:145
OFFSET:-0.073
DEMOSTART:128.969
MAKER:Colin
COURSE:Easy
LEVEL:2
SCOREINIT:
SCOREDIFF:
NOTESDESIGNER0:Colin
#START
,
#GOGOSTART
1110,
1010,
1110,
1010,
1110,
1010,
1110,
#GOGOEND
4040,
1010,
1,
2020,
2,
1010,
1,
1010,
1,
2220,
1110,
2220,
1110,
2220,
1110,
1010,
1112,
1110,
1110,
1010,
5080,
2220,
2220,
5008,
,
#GOGOSTART
4411,
1010,
2250,
8022,
4411,
1010,
2210,
1022,
4411,
1010,
2250,
#GOGOEND
8,
#GOGOSTART
1110,
1010,
1110,
1010,
1110,
1010,
1110,
#GOGOEND
4040,
1010,
1,
2020,
2,
1010,
1,
1010,
1,
1020,
1020,
1020,
1020,
1020,
1020,
1020,
1020,
1110,
1110,
2220,
2220,
1210,
1210,
2020,
2,
,
#GOGOSTART
4411,
1010,
2250,
8022,
4411,
1010,
2210,
1022,
4411,
1010,
5,
8,
1010,
#GOGOEND
3034,
#END
COURSE:Normal
LEVEL:3
SCOREINIT:
SCOREDIFF:
NOTESDESIGNER1:Colin
#START
,
#GOGOSTART
10101011,
1110,
10101011,
1110,
10101011,
1110,
1111,
#GOGOEND
4440,
1210,
1210,
2120,
2120,
1210,
1210,
1210,
1010,
20202220,
1110,
20202220,
1110,
20202220,
1110,
10111010,
1112,
1110,
10111000,
1110,
5080,
20202220,
2222,
5008,
,
#GOGOSTART
40401111,
1110,
20225000,
8022,
40401011,
10010022,
2211,
10022020,
40401111,
1111,
2250,
#GOGOEND
8,
#GOGOSTART
10101110,
1011,
10101110,
1011,
10101110,
1010,
10101110,
#GOGOEND
4040,
1210,
1210,
2120,
2120,
1210,
1210,
1210,
1,
33002000,
33002000,
33002000,
33002000,
33002000,
33002000,
33002000,
33002000,
11101000,
11101000,
22202000,
22202000,
11201000,
11201000,
2220,
2220,
,
#GOGOSTART
40401111,
1110,
20225000,
8022,
40401111,
10010020,
20221020,
1022,
40401110,
1011,
5,
80101110,
1112,
#GOGOEND
3034,
#END
COURSE:Hard
LEVEL:4
BALLOON:8,6
SCOREINIT:
SCOREDIFF:
NOTESDESIGNER2:Colin
#START
,
#GOGOSTART
10221001,
0010202020111020,
10221001,
1222,
10221001,
0010202020111020,
10221020,
#GOGOEND
3003003030000000,
00201002,
22201011,
2221,
1,
00201001,
20202011,
2211,
22111000,
10202022,
10222011,
20102250,
08000011,
20202021,
11211011,
20011110,
1110,
2110,
20101001,
21020112,
7080,
2222,
2222,
4,
20202001,
#GOGOSTART
40202211,
2002002000202020,
10112125,
00844030,
40202211,
2002002000202020,
11112022,
4003004030000000,
40202211,
40404022,
12112021,
#GOGOEND
4003004030000000,
#GOGOSTART
10221001,
0010202020111020,
10221001,
1222,
10221001,
0010202020111020,
10221020,
#GOGOEND
3003003030000000,
20202022,
21112022,
10202117,
0800,
20101120,
22221022,
20021222,
2222,
33000000,
33002002,
33202020,
33000000,
33000000,
33002002,
3030200022002020,
33000022,
20202011,
20202001,
1011001010000020,
2022020020001010,
20201022,
20202022,
2001001010020020,
5080,
,
#GOGOSTART
40202211,
2002002000202020,
10112125,
00844030,
40202211,
2002002000202020,
11112022,
4003004030000000,
40202211,
4444,
6,
82122121,
2122,
#GOGOEND
4003004030004000,
#END
COURSE:Oni
LEVEL:8
BALLOON:12,7
SCOREINIT:
SCOREDIFF:
NOTESDESIGNER3:Colin
#START
000000000000000111200000,
#GOGOSTART
4011202010221020,
1011202010221020,
2022102010221020,
100000100100200000100000200000101010200000200000,
4011202010221020,
1011202010221020,
2022102010221020,
#GOGOEND
1021012020112000,
40212122,
2010201120101010,
20212121,
1011201120102020,
1011202010112010,
2010201120102010,
2011201020101020,
22111020,
2010201020112020,
11212121,
2010201120202020,
1020102120102020,
2010201020112010,
2010201120102010,
21211122,
2124,
200200200200100100100100200200200200202020200000,
200200200200100100100100200200200200202020200000,
200200200200100100100100200200200200202020200000,
200200200200100100100100202020200200100000200000,
2012021020220211,
2121021022221111,
20000002,
100000200000200111200100,
#GOGOSTART
4011201020121010,
200000100200000100200000100000202020100000100000,
4022102010121020,
200000100200100000200000200000101010200000200000,
2011202010221020,
100000100200000100200000100000202020100000200000,
1011102020221020,
100000100200000100200000100000101010200000200000,
4011201010221010,
400200300200300111200200,
2022102010201020,
#GOGOEND
4003004030112000,
#GOGOSTART
4011202010221020,
1011202010221020,
2022102010221020,
100000100100200000100000200000101010200000200000,
4011202010221020,
1011202010221020,
2022102010221020,
#GOGOEND
1021012020112000,
2011201022102010,
2011201120102010,
2011201020102211,
2010202040112010,
3010201022112010,
2010201120102211,
21222222,
2224,
33000000,
33002002,
33202020,
33000000,
700000000000800007000000,
83000000,
3030200022002020,
33000022,
2001201120001010,
2001201020000020,
1011201020002020,
1011021020001010,
2011201010002020,
2011201020002020,
2011201021012020,
1011201020001020,
200000200000200111200100,
#GOGOSTART
4011201020121010,
200000100200000100200000100000202020100000100000,
4022102010121020,
200000100200100000200000200000101010200000200000,
2011202010221020,
100000100200000100200000100000202020100000200000,
1011102020221020,
100000100200000100200000100000101010200000200000,
4011201010221010,
400200300200300111200200,
2022102010221020,
100000200200100000200000100000101010200000100000,
2022102010221020,
#GOGOEND
4003004030112000,
#END