generated from DragonRatTiger/Custom-Charts
511 lines
5.7 KiB
Plaintext
511 lines
5.7 KiB
Plaintext
TITLE:Cinema
|
|
SUBTITLE:--Ayase / Project SEKAI COLORFUL STAGE!
|
|
TITLEJA:シネマ
|
|
SUBTITLEJA:Ayase 「プロジェクトセカイ カラフルステージ!」より
|
|
PREIMAGE:Cinema.jpg
|
|
BGMOVIE:Cinema.mp4
|
|
WAVE:Cinema.ogg
|
|
BPM:124
|
|
OFFSET:0.953
|
|
DEMOSTART:152.676
|
|
MAKER:Colin
|
|
|
|
COURSE:Easy
|
|
LEVEL:2
|
|
SCOREINIT:
|
|
SCOREDIFF:
|
|
NOTESDESIGNER0:berdstep
|
|
|
|
#START
|
|
,
|
|
,
|
|
,
|
|
,
|
|
,
|
|
1010,
|
|
1120,
|
|
1020,
|
|
6008,
|
|
1010,
|
|
2,
|
|
1010,
|
|
4,
|
|
1110,
|
|
2220,
|
|
1010,
|
|
6008,
|
|
1020,
|
|
1,
|
|
1020,
|
|
3,
|
|
1010,
|
|
1010,
|
|
1020,
|
|
5008,
|
|
#GOGOSTART
|
|
1010,
|
|
2,
|
|
2020,
|
|
1,
|
|
1020,
|
|
1,
|
|
6008,
|
|
#GOGOEND
|
|
3,
|
|
2020,
|
|
3,
|
|
2020,
|
|
3,
|
|
2020,
|
|
3,
|
|
6008,
|
|
1010,
|
|
2020,
|
|
1010,
|
|
1110,
|
|
2020,
|
|
1010,
|
|
2020,
|
|
6008,
|
|
#GOGOSTART
|
|
1010,
|
|
2,
|
|
2020,
|
|
1,
|
|
1020,
|
|
1,
|
|
6008,
|
|
#GOGOEND
|
|
3,
|
|
1020,
|
|
3,
|
|
2010,
|
|
3,
|
|
1020,
|
|
3,
|
|
6008,
|
|
1010,
|
|
2020,
|
|
1010,
|
|
2220,
|
|
2020,
|
|
1010,
|
|
2010,
|
|
2220,
|
|
2,
|
|
,
|
|
2,
|
|
,
|
|
2020,
|
|
2,
|
|
2020,
|
|
2,
|
|
6008,
|
|
1
|
|
#GOGOSTART
|
|
010,
|
|
2,
|
|
2020,
|
|
1,
|
|
1020,
|
|
1,
|
|
6008,
|
|
3,
|
|
1010,
|
|
2,
|
|
2020,
|
|
1,
|
|
1020,
|
|
1,
|
|
6008,
|
|
3,
|
|
1010,
|
|
2,
|
|
6008,
|
|
#GOGOEND
|
|
3,
|
|
2020,
|
|
3,
|
|
2020,
|
|
3,
|
|
2020,
|
|
3030,
|
|
60008003,
|
|
#END
|
|
|
|
COURSE:Normal
|
|
LEVEL:4
|
|
SCOREINIT:
|
|
SCOREDIFF:
|
|
NOTESDESIGNER1:berdstep
|
|
|
|
#START
|
|
,
|
|
,
|
|
,
|
|
0202,
|
|
0202,
|
|
10100120,
|
|
10100120,
|
|
1122,
|
|
6008,
|
|
1122,
|
|
11202000,
|
|
1122,
|
|
10110020,
|
|
10101110,
|
|
20202220,
|
|
10011010,
|
|
6008,
|
|
1212,
|
|
1120,
|
|
1212,
|
|
1120,
|
|
10010010,
|
|
10010010,
|
|
1020,
|
|
5008,
|
|
#GOGOSTART
|
|
10101110,
|
|
2220,
|
|
10101110,
|
|
2010,
|
|
10101110,
|
|
1020,
|
|
6008,
|
|
#GOGOEND
|
|
3,
|
|
2222,
|
|
3,
|
|
2222,
|
|
3,
|
|
2222,
|
|
3,
|
|
20202220,
|
|
10101110,
|
|
2220,
|
|
10101110,
|
|
1110,
|
|
20202220,
|
|
1110,
|
|
2121,
|
|
6008,
|
|
#GOGOSTART
|
|
10101110,
|
|
2220,
|
|
10101110,
|
|
2010,
|
|
10101110,
|
|
1020,
|
|
6008,
|
|
#GOGOEND
|
|
3,
|
|
20102210,
|
|
3,
|
|
20102120,
|
|
3,
|
|
10201120,
|
|
3,
|
|
2022,
|
|
1111,
|
|
2220,
|
|
1111,
|
|
22202000,
|
|
2222,
|
|
1110,
|
|
2121,
|
|
22202000,
|
|
2020,
|
|
2,
|
|
2020,
|
|
2,
|
|
2220,
|
|
2220,
|
|
2222,
|
|
20022020,
|
|
6008,
|
|
10
|
|
#GOGOSTART
|
|
101110,
|
|
2220,
|
|
10101110,
|
|
2010,
|
|
10101110,
|
|
1020,
|
|
6008,
|
|
30022020,
|
|
10101110,
|
|
2220,
|
|
10101110,
|
|
2010,
|
|
10101110,
|
|
1020,
|
|
6008,
|
|
3,
|
|
10101110,
|
|
2220,
|
|
6008,
|
|
#GOGOEND
|
|
3,
|
|
2222,
|
|
3,
|
|
2222,
|
|
3,
|
|
2222,
|
|
3030,
|
|
60008003,
|
|
#END
|
|
|
|
COURSE:Hard
|
|
LEVEL:6
|
|
BALLOON:3,12
|
|
SCOREINIT:
|
|
SCOREDIFF:
|
|
NOTESDESIGNER2:Colin
|
|
|
|
#START
|
|
,
|
|
2001010101020202,
|
|
02000001,
|
|
1002020202010102,
|
|
02000000,
|
|
1022010102000000,
|
|
2002020100200010,
|
|
2011010201011020,
|
|
0000000000000222,
|
|
2002020101020201,
|
|
0020000000000220,
|
|
2001010202020201,
|
|
0020000000000111,
|
|
1001020202000000,
|
|
1002010100200010,
|
|
1011010202020222,
|
|
00011212,
|
|
1020020020020020,
|
|
0200202010100000,
|
|
1010010010010010,
|
|
0100101010200000,
|
|
2222200020200000,
|
|
1111100010100010,
|
|
12221121,
|
|
00012122,
|
|
#GOGOSTART
|
|
40401212,
|
|
12120122,
|
|
40401212,
|
|
12120111,
|
|
40401111,
|
|
11110201,
|
|
1001010101002020,
|
|
#GOGOEND
|
|
1022020010220110,
|
|
1002010010220220,
|
|
1002001010020220,
|
|
1002022202220000,
|
|
1022020010220110,
|
|
1002010010220220,
|
|
1002010010020220,
|
|
1020022202222020,
|
|
1110200020220010,
|
|
1110111020020000,
|
|
1010200020220010,
|
|
1010200020220020,
|
|
1010220020010011,
|
|
1100202020010010,
|
|
2020202020020000,
|
|
1111,
|
|
#GOGOSTART
|
|
40401212,
|
|
12120122,
|
|
40401212,
|
|
12120111,
|
|
40401111,
|
|
11110201,
|
|
1001010101020221,
|
|
#GOGOEND
|
|
05000080,
|
|
5,
|
|
,
|
|
8,
|
|
2022000010110000,
|
|
17807000,
|
|
8011022220220222,
|
|
0020010110202000,
|
|
1020020020020020,
|
|
0200202010100000,
|
|
1010010010010010,
|
|
0100101010200000,
|
|
2222200020200000,
|
|
1111100010100010,
|
|
12221125,
|
|
0080,
|
|
2022,
|
|
20002222,
|
|
20002222,
|
|
2020,
|
|
10200120,
|
|
10200120,
|
|
10200120,
|
|
1022002020101010,
|
|
00022112,
|
|
40
|
|
#GOGOSTART
|
|
401212,
|
|
12120122,
|
|
40401212,
|
|
12120111,
|
|
40401111,
|
|
11110201,
|
|
1001010101020110,
|
|
00011111,
|
|
40401212,
|
|
12120122,
|
|
40401212,
|
|
12120111,
|
|
40401111,
|
|
11110201,
|
|
1001010101020201,
|
|
02012222,
|
|
40401212,
|
|
12120222,
|
|
1001010102002020,
|
|
#GOGOEND
|
|
1022020010220110,
|
|
1002010010220220,
|
|
1002001010020220,
|
|
1002022202220000,
|
|
1022020010220110,
|
|
1002010010220220,
|
|
1002010010020220,
|
|
1040040040404040,
|
|
#END
|
|
|
|
COURSE:Oni
|
|
LEVEL:9
|
|
SCOREINIT:
|
|
SCOREDIFF:
|
|
NOTESDESIGNER3:Colin
|
|
|
|
#START
|
|
0000000000000221,
|
|
2011020102010202,
|
|
0122021211221122,
|
|
1021020201010111,
|
|
2021012010121222,
|
|
2012012102120211,
|
|
2012012101201122,
|
|
1021010201011020,
|
|
100000200200100100200200100100101010200200100100,
|
|
2022020121120210,
|
|
1112011201221111,
|
|
2012010121120101,
|
|
0122122202120122,
|
|
1012020102112112,
|
|
1012012101220210,
|
|
1112012102120121,
|
|
2021021120122010,
|
|
3010210210210120,
|
|
1201201010112110,
|
|
1010210210210120,
|
|
1201201010221211,
|
|
2122202120222102,
|
|
2120202120121120,
|
|
1020102012211120,
|
|
100100100200000200100000200200101010200200200200,
|
|
#GOGOSTART
|
|
#SCROLL 1.3
|
|
4
|
|
#SCROLL 1
|
|
022210121122212,
|
|
1121212011210212,
|
|
1022210211211212,
|
|
100100100100200000100200100100101010200100200200,
|
|
1022210121121012,
|
|
1120101211210210,
|
|
2012020201021022,
|
|
#GOGOEND
|
|
1112020211210212,
|
|
1121010211120121,
|
|
1112020211210212,
|
|
1122022202212111,
|
|
1112020211210212,
|
|
1121010211120121,
|
|
1112020211210212,
|
|
1020122211122021,
|
|
2212122220210122,
|
|
2112121120210120,
|
|
1111212120210121,
|
|
1111121220210202,
|
|
1122111212220202,
|
|
1202112210210120,
|
|
2211121210210122,
|
|
100000200200100000200200100000101010202020101010,
|
|
#GOGOSTART
|
|
2022210121122212,
|
|
1121212011210212,
|
|
1022210211211212,
|
|
100100100100200000100200100100101010200100200200,
|
|
1022210121121012,
|
|
1120101211210210,
|
|
2012020201020122,
|
|
#GOGOEND
|
|
1122020211210222,
|
|
100100202020100100100100100200100200000100200200,
|
|
2122121111210211,
|
|
2122211222220222,
|
|
1122020211210212,
|
|
100100201010200100200200201010201010201010202020,
|
|
2011012210220122,
|
|
0020210111202120,
|
|
3010210210210120,
|
|
1201201010112110,
|
|
1010210210210120,
|
|
1201201010221211,
|
|
1222222021221221,
|
|
2121122120221120,
|
|
12121112,
|
|
1021001000000221,
|
|
2011020102010202,
|
|
0020000000000122,
|
|
1021020101010102,
|
|
0020000000000222,
|
|
1021020101000212,
|
|
1012020100100010,
|
|
1022010202020210,
|
|
100000100200000100200200100200101010200200200200,
|
|
100100100200000200100100200200101010200200200200,
|
|
1010
|
|
#GOGOSTART
|
|
#SCROLL 1.5
|
|
4
|
|
#SCROLL 1
|
|
00010122212,
|
|
1121212011210212,
|
|
1022210211211212,
|
|
100100100100200000100200100100101010200100200200,
|
|
1022210121121012,
|
|
1120101211210210,
|
|
2012010102020212,
|
|
1122121012112122,
|
|
2022210121122212,
|
|
1121212011210212,
|
|
1022210211211212,
|
|
100100100100200000100200100100101010200100200200,
|
|
1022210121121012,
|
|
1120101211210210,
|
|
2012020201010201,
|
|
0120121020101122,
|
|
1122210121121211,
|
|
2020212211122220,
|
|
2021010102021020,
|
|
#GOGOEND
|
|
1112020211210212,
|
|
1121010211120121,
|
|
1112020211210212,
|
|
1122022202212111,
|
|
1112020211210212,
|
|
1121010211120121,
|
|
1112020211210212,
|
|
1120120120303040,
|
|
#END
|